<?xml version="1.0" standalone="no"?>
<!DOCTYPE svg PUBLIC "-//W3C//DTD SVG 1.1//EN" "http://www.w3.org/Graphics/SVG/1.1/DTD/svg11.dtd" >
<svg xmlns="http://www.w3.org/2000/svg" xmlns:xlink="http://www.w3.org/1999/xlink" version="1.1">
<metadata></metadata>
<defs>
<font id="heritageregular" horiz-adv-x="655" >
<font-face units-per-em="2048" ascent="1536" descent="-512" />
<missing-glyph horiz-adv-x="350" />
<glyph horiz-adv-x="0" />
<glyph unicode="&#xd;" horiz-adv-x="350" />
<glyph unicode=" "  horiz-adv-x="350" />
<glyph unicode="&#x09;" horiz-adv-x="350" />
<glyph unicode="&#xa0;" horiz-adv-x="350" />
<glyph unicode="!" d="M156 270q2 25 21 41.5t44 12.5q25 -2 41.5 -21.5t11.5 -44.5q-4 -25 -22.5 -41t-42.5 -12q-25 4 -41 22.5t-12 42.5zM211 467q35 123 67.5 246t67.5 248q37 141 75 278t75 279q6 27 22.5 35t32.5 2.5t26.5 -21t2.5 -35.5q-37 -139 -74 -275.5t-74 -275.5l-135 -497 q-6 -23 -21.5 -31t-32 -5t-27.5 17t-5 35z" />
<glyph unicode="&#x22;" horiz-adv-x="614" d="M206 850q-1 2 1 4q31 25 39 43q4 12 -1 19.5l-9 13.5q-18 23 -17 45q4 25 22.5 40t43.5 13q23 -4 38 -19.5t17 -37.5q0 -25 -11.5 -45.5t-29.5 -34.5t-42 -24.5t-46 -16.5q-4 -2 -5 0zM356 850q-2 2 2 4q31 25 37 43q4 12 0 19.5t-8 13.5q-18 23 -16 45q2 25 21 40t44 13 q23 -4 37 -19.5t16 -37.5q2 -25 -10 -45.5t-30.5 -34.5t-42 -24.5t-44.5 -16.5q-4 -2 -6 0z" />
<glyph unicode="#" horiz-adv-x="925" d="M92 608.5q0 14.5 10.5 27.5t30.5 13h90q33 0 42 9.5t18 21.5q10 18 13 34.5t-30 16.5h-76q-23 0 -33 12.5t-8.5 26.5t12.5 26.5t34 12.5h90q23 0 38 12.5t19 24.5q16 49 28.5 87t22.5 66q8 20 23.5 27.5t29 3.5t21.5 -17.5t2 -33.5q-8 -23 -17.5 -53.5t-23.5 -73.5 q-4 -12 0 -29.5t27 -15.5h45q23 0 39 13.5t22 33.5l45 133q6 20 21.5 27.5t30 4.5t23.5 -17.5t1 -38.5l-39 -113q-6 -18 -1 -31.5t30 -13.5l57 -2q20 2 31.5 -10.5t11.5 -27.5t-12 -27.5t-37 -12.5h-86q-25 0 -33 -9t-16 -32q-4 -12 -2 -23.5t24 -11.5h49q20 0 31.5 -12 t13 -27.5t-10 -28t-34.5 -14.5h-55q-29 0 -47 -13t-29 -48l-45 -135q-6 -20 -21.5 -27.5t-29.5 -4.5t-22.5 16.5t-1.5 35.5l38 115q14 45 1 52t-48 9q-33 2 -52 -7t-30 -44q-10 -29 -14 -41t-7 -20.5t-7 -20.5t-15 -41q-4 -20 -19 -28.5t-30.5 -4t-25 18.5t-0.5 37l39 110 q4 14 -4.5 27.5t-26.5 13.5h-70q-23 0 -34 13.5t-11 28zM373 686q-4 -12 2 -24.5t22 -12.5h60q25 0 34 12.5t17 30.5q6 23 -3 29t-22 6l-59 2q-10 0 -25.5 -4t-25.5 -39z" />
<glyph unicode="$" horiz-adv-x="956" d="M26.5 528.5q-10.5 57.5 0.5 116.5q10 57 38.5 109.5t73.5 90.5t105.5 57.5t132.5 10.5q20 0 39 -6q29 -4 53.5 8.5t32.5 38.5q4 14 5 20.5t5 16.5q10 25 4 50.5t-16 43.5q-29 53 -47.5 109.5t-18.5 120.5q0 37 8.5 73.5t28.5 69.5q27 43 68 68.5t90 36.5q6 2 18 2 q43 6 55 51q4 12 5 16q8 25 24.5 32t30.5 3t23.5 -18.5t0.5 -34.5q-2 -4 -4 -14.5t-4 -14.5q-4 -16 -4 -30.5t17 -24.5q8 -6 20 -19q23 -23 37 -53.5t18 -64.5q4 -37 -4 -73t-24 -71q-4 -8 -10.5 -14t-16.5 -10q-12 -4 -29 2q-12 6 -16 20q-6 14 4 29q12 25 18.5 51.5 t2.5 52.5q-4 23 -13 41q-8 20 -23.5 26.5t-25.5 -28.5q-25 -82 -50.5 -163.5t-47.5 -153.5q-4 -23 -7 -46.5t15 -51.5q39 -66 78 -142t49 -145q12 -84 -9.5 -162t-69.5 -139.5t-117.5 -102.5t-153.5 -51q-25 -4 -41.5 -4t-26.5 -31q-4 -10 -7 -22t-7 -19q-6 -23 -20.5 -29.5 t-30 -2.5t-24.5 17t-3 34q0 4 3 13t5 13q10 29 1 40.5t-25 15.5q-59 14 -103.5 51t-72 85t-38 105.5zM109 633q-14 -78 21.5 -156t113.5 -106q18 -6 31.5 -4t22.5 10t14 19.5t10 21.5q8 27 20 65.5t24.5 79.5t24.5 81t23 71q8 20 22.5 24t27.5 -5t19 -29.5t-2 -49.5 q-4 -12 -15 -48t-24.5 -74.5t-24.5 -73.5t-16 -47q-4 -10 -5 -22.5t2 -22t10.5 -14.5t23.5 -1q129 29 196.5 118t57.5 224q-4 41 -23.5 88t-41.5 90q-18 35 -33 36t-23 -25q-2 -6 -4 -11.5t-4 -11.5q-4 -20 2 -35.5t14 -31.5q18 -29 27.5 -68t3.5 -74q0 -20 -16 -37 q-8 -8 -27 -8q-10 0 -22 12q-10 10 -11 29q4 39 -7 72t-33.5 57.5t-55.5 38.5t-72 16q-53 2 -96 -13t-74.5 -42.5t-52 -64.5t-28.5 -78zM516 1319q0 -51 14 -96q8 -25 17.5 -30t16.5 0t13.5 16.5t8.5 17.5q16 53 32.5 108.5t32.5 110.5q6 16 2 24.5t-12 11.5t-16.5 2 t-14.5 -3q-47 -20 -70.5 -63.5t-23.5 -98.5z" />
<glyph unicode="%" horiz-adv-x="1392" d="M97 1071.5q3 58.5 16 114.5q23 104 77 194q37 55 90.5 93t122.5 32q72 -6 106 -61t44 -119q6 -31 7 -61.5t-1 -59.5t-5 -55.5t-9 -52.5q-12 -57 -32.5 -113.5t-53.5 -103.5q-33 -51 -78 -84t-111 -27q-39 2 -67.5 19.5t-48 44t-31.5 58.5t-19 66q-10 57 -7 115.5z M180 977q6 -41 27.5 -83t68.5 -48q45 -6 75 20.5t50 61.5q27 41 43.5 88t26.5 94t13 96t-3 97q-2 18 -7 39.5t-15 40t-26.5 30.5t-39.5 14q-47 4 -80.5 -25.5t-56.5 -64.5q-25 -39 -40 -82t-26 -88q-23 -96 -10 -190zM446 256q16 61 43 156.5t54.5 196t54.5 195.5t43 157 q37 139 75 277t72 280q6 25 23.5 34t34 3.5t26.5 -21t2 -35.5q-37 -139 -73.5 -275.5t-73.5 -275.5q-16 -61 -43 -156.5t-54.5 -196.5t-54 -196.5t-43.5 -158.5q-6 -23 -21 -30t-31.5 -4t-28 16.5t-5.5 33.5zM773 599.5q3 59.5 15 113.5q23 109 78 194q37 55 90.5 93 t122.5 34q37 -4 62.5 -20.5t44 -42t29 -57t14.5 -62.5q6 -29 7 -59.5t-1 -61.5q-2 -29 -5 -54.5t-9 -53.5q-12 -55 -33 -111.5t-51 -105.5q-35 -51 -80 -83t-111 -26q-39 2 -67.5 19.5t-48 44t-32 58.5t-18.5 66q-10 55 -7 114.5zM856 504q6 -41 27.5 -83t68.5 -48 q45 -4 75 22.5t50 61.5q27 41 42.5 87t25.5 93t14 96t-2 96q-2 18 -7 40t-15.5 40.5t-26.5 31.5t-39 15q-45 4 -80 -25.5t-57 -64.5q-25 -39 -40 -83t-26 -87q-23 -96 -10 -192z" />
<glyph unicode="&#x26;" horiz-adv-x="1431" d="M307 522q4 86 42 166t99.5 140.5t140.5 96.5t165 36q-2 2 -2 3t-2 3q-6 14 -20.5 22t-31.5 8q-78 4 -148.5 35t-121.5 92q-70 82 -78 205q-2 18 8.5 32.5t30.5 14.5q14 0 25.5 -9t11.5 -26q0 -92 57 -161q59 -70 143.5 -91.5t172.5 -9t169 52t132 95.5q47 51 44 99 t-38 71q-45 31 -94 15.5t-92 -55.5t-73 -95.5t-32 -104.5q-2 -20 -15.5 -30.5t-29.5 -10.5t-30.5 10.5t-14.5 28.5q4 80 51 158t113.5 130t141.5 62.5t136 -45.5q35 -31 47.5 -79t-4.5 -103q-6 -27 -22.5 -55.5t-44.5 -59.5q-47 -49 -101.5 -76.5t-117.5 -52.5 q-12 -4 -25.5 -8t-26.5 -8q-33 -14 -20 -49q4 -6 7 -12.5t7 -12.5q76 -27 94.5 -63.5t2.5 -61.5q-10 -14 -26.5 -21t-39.5 -5t-47.5 17t-48.5 48q-74 12 -142.5 -11.5t-123 -70.5t-88 -112.5t-39.5 -139.5q-6 -100 29.5 -166.5t94 -99.5t129 -31t135 37t111.5 103.5 t58 171.5q4 29 -9.5 44t-34 19t-46 -2t-46.5 -20q-33 -23 -55 -54.5t-39 -66.5q-10 -23 -27.5 -28t-30.5 2t-21.5 22.5t-0.5 31.5q16 37 39 71t51 63q37 37 76 53q23 12 46.5 19t47.5 14q45 10 90.5 16t88.5 27q66 29 110 86q16 18 28.5 37.5t22.5 39.5q8 16 31 21 q16 4 30.5 -7.5t18.5 -27.5q2 -10 -2 -18.5t-8 -16.5q-31 -55 -72 -102q-23 -23 -49 -43.5t-55 -36.5q-51 -35 -70.5 -63.5t-23.5 -81.5q-10 -127 -70.5 -216.5t-145.5 -136.5t-181.5 -51t-175.5 38t-130 129t-45 222z" />
<glyph unicode="'" horiz-adv-x="466" d="M206 850q-1 2 1 4q31 25 39 43q4 12 -1 19.5l-9 13.5q-18 23 -17 45q4 25 22.5 40t43.5 13q23 -4 38 -19.5t17 -37.5q0 -25 -11.5 -45.5t-29.5 -34.5t-42 -24.5t-46 -16.5q-4 -2 -5 0z" />
<glyph unicode="(" horiz-adv-x="528" d="M41 575.5q0 149.5 28.5 304t86 299t137.5 246.5q72 90 158 137.5t188 32.5q20 -2 30.5 -18t10.5 -33.5t-11.5 -32t-33.5 -14.5q-78 6 -145.5 -29.5t-120.5 -105.5q-78 -98 -130.5 -243.5t-74.5 -299.5q-6 -35 -11.5 -93t-7.5 -127t4.5 -139.5t24.5 -131.5q16 -53 42 -93 t67 -59q14 -6 36.5 -9t38.5 1q23 2 37.5 -11.5t16.5 -32t-10.5 -35.5t-41.5 -21q-23 -4 -49 -1t-45 7q-72 16 -120 77.5t-74 157.5q-31 117 -31 266.5z" />
<glyph unicode=")" horiz-adv-x="743" d="M20 127q0 18 11.5 32.5t34.5 14.5q78 -8 145.5 29t120.5 104q78 98 130 244.5t75 300.5q6 35 11 93.5t7 126t-4 139t-25 132.5q-16 53 -42.5 93.5t-67.5 58.5q-12 6 -36 8t-40 -2q-23 -2 -36 12.5t-15 33t10 35.5t41 22q23 4 49.5 -0.5t44.5 -8.5q72 -14 120 -76.5 t75 -156.5q31 -117 30.5 -266.5t-30 -304t-86 -299t-135.5 -246.5q-72 -90 -158 -138.5t-189 -33.5q-20 2 -30.5 18.5t-10.5 34.5z" />
<glyph unicode="*" horiz-adv-x="761" d="M149.5 928.5q2.5 15.5 14.5 28t33 12.5h88q23 0 23.5 13.5t-3.5 21.5q-8 16 -15 29.5t-16 27.5q-12 20 -5 36.5t20.5 24.5t30 4t26.5 -24q20 -37 41 -76q16 -29 33.5 -20.5t28.5 18.5q25 23 47 43t49 43q18 18 35.5 17t27.5 -12t11.5 -28.5t-17.5 -33.5 q-16 -16 -30.5 -28.5t-30.5 -27.5q-10 -10 -15.5 -19t23.5 -9h78q23 -2 32 -15.5t7 -29t-14.5 -26.5t-33.5 -11q-29 -2 -57.5 -2h-56.5q-10 0 -19.5 -8.5t-1.5 -22.5q10 -16 19.5 -33.5t19.5 -36.5q10 -20 5 -36.5t-18 -24.5t-30.5 -5t-29.5 25l-43 80q-10 20 -25.5 17.5 t-26.5 -11.5l-110 -98q-16 -16 -39 -9t-29 30q-4 23 14 36q18 16 38 35t40 35q14 16 8 21.5t-16 5.5h-33.5t-33.5 2q-25 0 -35.5 13t-8 28.5z" />
<glyph unicode="+" horiz-adv-x="876" d="M41 653.5q0 16.5 11 30.5t34 14h197q29 0 50 17.5t29 40.5q18 57 36 107t36 108q8 23 24.5 31t32 3.5t24.5 -19.5t1 -38l-67 -209q-4 -14 3 -27.5t23 -13.5h197q23 0 36 -13t13 -29.5t-11.5 -30t-37.5 -15.5q-53 -2 -106.5 -2h-106.5q-23 0 -42.5 -11t-29.5 -44 q-20 -66 -40.5 -128.5t-43.5 -127.5q-6 -27 -29 -33q-18 -10 -41 2q-10 10 -16 23q-4 18 2 35l80 237q4 16 -4 31.5t-29 15.5l-176 2q-25 0 -37 13.5t-12 30z" />
<glyph unicode="," horiz-adv-x="397" d="M155 152q-1 2 1 4q31 25 39 43q4 12 -1.5 19t-9.5 13q-18 23 -16 45q4 25 22 40.5t43 13.5q23 -4 38.5 -19.5t15.5 -38.5q2 -25 -10.5 -45t-31 -34.5t-42 -24.5t-43.5 -16q-4 -2 -5 0z" />
<glyph unicode="-" horiz-adv-x="770" d="M59 653.5q0 16.5 11.5 30.5t33.5 14h299h59.5t42 1t42 1h59.5q23 0 36 -13t13 -29.5t-11 -30t-38 -15.5l-209 -2h-288q-25 0 -37.5 13.5t-12.5 30z" />
<glyph unicode="." horiz-adv-x="382" d="M156 270q2 25 21 41.5t44 12.5q25 -2 41.5 -21.5t11.5 -44.5q-4 -25 -22.5 -41t-42.5 -12q-25 4 -41 22.5t-12 42.5z" />
<glyph unicode="/" horiz-adv-x="602" d="M166 258q16 61 43 155.5t54.5 195t54 195.5t42.5 157q37 141 75 278t73 279q6 27 23.5 35t34 2.5t26.5 -21t2 -35.5q-37 -139 -74 -275.5t-74 -275.5q-16 -61 -42.5 -156.5t-54 -196.5t-54.5 -196.5t-43 -156.5q-6 -23 -21.5 -31t-32 -5t-27.5 17.5t-5 34.5z" />
<glyph unicode="0" horiz-adv-x="911" d="M55.5 759.5q5.5 108.5 28.5 211.5q20 94 55 187t88 173q33 49 74 93t88 76t102.5 48.5t118.5 10.5q63 -4 108.5 -35t76 -76t49 -100.5t26.5 -110.5q16 -104 11.5 -214t-27.5 -214t-60.5 -208.5t-97.5 -194.5q-59 -90 -141 -149.5t-195 -49.5q-68 6 -117.5 36.5t-85.5 78 t-57.5 105.5t-31.5 120q-18 104 -12.5 212.5zM153.5 763q-6.5 -95 8.5 -188q6 -45 20.5 -90t39 -82.5t60 -64.5t87.5 -33q45 -6 82.5 6.5t70.5 36t59.5 56t49.5 69.5q47 80 79.5 171t51.5 181q18 92 25.5 187.5t-3.5 187.5q-6 43 -17 87t-33.5 82t-56.5 63.5t-83 29.5 q-47 4 -89 -10t-78 -40t-65.5 -60.5t-52.5 -71.5q-47 -74 -78.5 -160t-50.5 -172q-20 -90 -26.5 -185z" />
<glyph unicode="1" horiz-adv-x="532" d="M39 258l252 1040q4 20 -13.5 32.5t-41.5 -5.5q-12 -10 -17.5 -13t-9.5 -6t-11.5 -8.5t-25.5 -15.5q-18 -12 -35.5 -6t-27 22.5t-7.5 36t23 31.5q37 25 63.5 44.5t51 39.5t50 43t56.5 51q16 14 35.5 16.5t35 -5t22.5 -23.5t1 -39l-303 -1247q-6 -25 -23.5 -34t-35 -6 t-30.5 16.5t-9 35.5z" />
<glyph unicode="2" horiz-adv-x="989" d="M2 266q10 86 61.5 156t110.5 129q55 55 129 122.5t133 119.5q37 31 88 78t101.5 104t94.5 120.5t64 129.5q23 68 6.5 119t-58.5 82.5t-100.5 40t-117.5 -10.5q-63 -20 -106 -71.5t-74 -122.5q-6 -16 -19.5 -27.5t-29.5 -9.5q-23 4 -38.5 24.5t-4.5 42.5q41 94 100 160 t139 94q82 29 165 15.5t143.5 -59.5t89 -118.5t4.5 -162.5q-20 -76 -64.5 -148t-99.5 -136.5t-113.5 -119.5t-107.5 -96q-55 -47 -123 -111.5t-119 -115.5l-22.5 -22.5t-22.5 -25.5q-4 -6 -8 -18t-2 -24.5t10 -20.5t27 -4q84 20 153.5 9t126.5 -32.5t100.5 -40t73.5 -8.5 q49 12 103 90q8 12 16 23.5t23 15.5q14 4 28.5 -2t23.5 -17t11 -27t-8 -28q-45 -78 -92 -114.5t-105 -40.5q-72 -6 -117 13.5t-94 41t-113.5 29.5t-172.5 -19q-61 -14 -115 -53q-10 -6 -23.5 -10t-23.5 0q-16 6 -25.5 22.5t-5.5 34.5z" />
<glyph unicode="3" horiz-adv-x="933" d="M51 551q4 18 18.5 26.5t31 8.5t29.5 -9.5t13 -25.5q-6 -59 12.5 -108.5t50.5 -82t72.5 -49t83.5 -12.5q76 8 132.5 47t92.5 94.5t54 121t18 127t-17 111.5t-50 74q-33 20 -65.5 15.5t-67.5 -12.5q-25 -6 -40.5 5t-20.5 27.5t1.5 34t24.5 23.5q61 23 120.5 52.5 t106.5 74.5q33 31 59.5 73.5t37 89t-1 90.5t-54.5 74q-45 33 -107.5 33t-123 -21.5t-111.5 -62.5t-74 -92q-8 -16 -25.5 -25.5t-35.5 -1.5q-23 10 -28 31t6 41q35 68 102 122t147 81.5t163 22.5t147 -54q57 -47 77.5 -108.5t12.5 -126t-41 -126t-80 -106.5q-25 -27 -34 -46 t-9 -35.5t8 -31t21 -32.5q47 -94 45 -207t-46 -213.5t-128 -173t-201 -84.5q-66 -8 -129.5 15.5t-111.5 70.5t-72.5 113.5t-12.5 146.5z" />
<glyph unicode="4" horiz-adv-x="948" d="M1 762.5q3 21.5 13 38.5l281 487q25 41 36 69.5t11 53.5t-11.5 51.5t-33.5 65.5q-6 16 2 31.5t22.5 22.5t32 7t29.5 -14q31 -43 44 -81t12 -74t-15 -74.5t-41 -85.5l-221 -404q-23 -41 -20 -61.5t46 -20.5q74 4 144.5 -1t146.5 -1q78 4 84 59l142 584q4 27 21 37t34.5 8 t30 -16t10.5 -37l-262 -1159q-4 -25 -21.5 -35t-36 -8t-32 15t-11.5 36l82 356q6 41 -14.5 52.5t-38.5 9.5l-408 6q-25 0 -38 12.5t-18 30.5t-2 39.5z" />
<glyph unicode="5" horiz-adv-x="958" d="M20 553q0 74 29 151.5t88 149.5q14 20 37 19t35 -21q10 -12 9 -28.5t-11 -28.5q-90 -115 -92 -229.5t75 -186.5q49 -45 107.5 -62.5t118.5 -13.5q76 6 137 45t104 98.5t68 132t27 144.5t-20.5 138.5t-72.5 111.5q-41 39 -95 55t-112.5 16t-115.5 -12t-103 -31 q-12 -8 -26 -5t-24.5 12.5t-14.5 22.5t0 28q35 104 68.5 220t66.5 222q12 41 24.5 50.5t49.5 7.5l442 -7q27 0 38 -15t10 -33.5t-13 -34t-33 -15.5l-375 2q-23 -2 -43 -14t-30 -37q-16 -51 -29.5 -101.5t-30.5 -101.5q-12 -41 7.5 -57.5t52.5 -5.5q51 8 103 4t101.5 -19.5 t93.5 -43t79 -68.5q53 -61 76.5 -142.5t18.5 -167.5t-37 -171t-85 -153.5t-128 -114.5t-167 -54q-78 -6 -154.5 16.5t-140.5 77.5q-55 47 -84 111.5t-29 138.5z" />
<glyph unicode="6" horiz-adv-x="870" d="M10 567q-4 88 18.5 188.5t64.5 202t102.5 198.5t132 179t151.5 143.5t162 94.5q23 6 37 -5.5t18 -27.5t-2 -32.5t-24 -22.5q-68 -29 -136.5 -80t-131 -121t-118 -153.5t-96.5 -178.5q-4 -12 0.5 -22t12.5 -16.5t19 -6.5t22 6q92 45 187 40t171 -51t122 -128t40 -188 q-4 -72 -34 -140.5t-82 -123t-126 -86t-166 -27.5q-78 2 -139 31.5t-106.5 78t-70 112t-28.5 136.5zM109 557q6 -49 26.5 -95t53 -82t76.5 -58.5t97 -22.5q72 -2 127.5 22.5t95.5 66.5t61.5 94.5t25.5 105.5q4 59 -14.5 112.5t-55.5 91t-88 58t-111 14.5q-92 -8 -163.5 -51 t-106.5 -113q-16 -33 -22.5 -69.5t-1.5 -73.5z" />
<glyph unicode="7" horiz-adv-x="925" d="M47.5 1351.5q-8.5 20.5 1.5 37.5q20 41 49 77.5t70 59.5q45 27 91 31t92 -1.5t91 -16.5t93 -15q76 -10 131 3t125 40q25 10 42 -10.5t9 -43.5q-14 -47 -35 -91t-47 -87q-82 -139 -158 -243.5t-143 -206.5q-66 -100 -121 -215t-102 -279q-10 -37 -18.5 -71.5t-16.5 -69.5 q-4 -25 -19.5 -37t-32 -12t-30 13t-10.5 40q6 33 14 67.5t18 73.5q27 92 54.5 168t56.5 139.5t59.5 117.5t63.5 104q63 94 135 190t156 229q16 33 12 50.5t-20.5 23.5t-39.5 7.5t-43 5.5q-41 0 -90 10t-97 17t-93 8t-78 -15q-35 -16 -52.5 -42t-33.5 -58q-8 -16 -24.5 -22.5 t-32.5 -0.5q-18 4 -26.5 24.5z" />
<glyph unicode="8" horiz-adv-x="956" d="M47 555q-10 86 14.5 169t77.5 153q41 53 85 85.5t102 61.5q27 14 37 27.5t9 29t-9.5 35t-18.5 45.5q-29 70 -27 142q4 66 31 123t78 98q35 31 80 47t92 12q84 -6 146.5 -61.5t78.5 -139.5q10 -63 -11 -127.5t-64 -111.5q-23 -25 -46.5 -42.5t-46.5 -33.5 q-31 -18 -64.5 -31.5t-74.5 -27.5q-84 -29 -166 -72t-139 -115q-47 -57 -65.5 -130t-4.5 -144q16 -94 78 -162q53 -55 123 -76.5t143 -11.5q78 10 141.5 52t102.5 112q31 59 38 125.5t-9 132.5q-16 57 -60.5 113.5t-91.5 91.5q-20 16 -23 36.5t23 30.5q16 8 36 6t34 -12 q55 -45 105 -115.5t67 -140.5q23 -86 7.5 -176t-62.5 -164q-49 -78 -127 -124t-166 -56q-90 -12 -176 10.5t-152 85.5q-53 49 -84 113.5t-41 136.5zM410 1303q0 -29 5 -60t21 -57q25 -41 68 -49.5t86 6.5q57 18 96 67q57 66 47 152q-6 53 -45 89t-92 40q-39 4 -73 -10.5 t-58 -42.5q-55 -61 -55 -135z" />
<glyph unicode="9" horiz-adv-x="884" d="M43 1192q4 72 33.5 141.5t82 122.5t126 84t166.5 29q76 -2 138 -31t106 -77t68.5 -111.5t29.5 -137.5q4 -90 -17.5 -189t-64.5 -200.5t-102.5 -199t-131 -179.5t-151.5 -144t-162 -93q-23 -6 -37 5t-19.5 27.5t2 33t25.5 22.5q68 29 135.5 80t131 119.5t118.5 153.5 t96 179q8 25 -12 37.5t-41 1.5q-92 -47 -187 -42t-171 51.5t-122 128.5t-40 188zM133 1192q-4 -59 14.5 -112.5t55.5 -91.5t88 -59.5t110 -15.5q92 10 164 53.5t107 112.5q33 68 22 142q-4 49 -24.5 95t-53 83t-78 59.5t-96.5 22.5q-72 0 -127 -24.5t-95 -65.5t-61.5 -93.5 t-25.5 -105.5z" />
<glyph unicode=":" horiz-adv-x="542" d="M150 274q4 25 22 40.5t43 13.5q25 -4 41 -22.5t12 -45.5q-4 -25 -22.5 -40t-42.5 -13q-25 4 -41.5 23.5t-11.5 43.5zM313 838q2 25 21.5 41t44.5 12q25 -2 41 -21.5t12 -44.5t-22.5 -41t-42.5 -12q-25 4 -41.5 22.5t-12.5 43.5z" />
<glyph unicode=";" horiz-adv-x="573" d="M160 158q31 25 39 43q4 12 -1 19t-10 11q-18 23 -16 45q4 25 22.5 41.5t43.5 12.5q23 -2 38 -17.5t15 -38.5q2 -27 -10.5 -46t-31 -34.5t-42 -25.5t-43.5 -16q-10 0 -4 6zM344 840q2 25 21.5 41t44.5 12q25 -2 41 -21.5t12 -44.5t-22.5 -41t-43.5 -12t-41 22.5t-12 43.5z " />
<glyph unicode="&#x3c;" horiz-adv-x="595" d="M148.5 624.5q-1.5 24.5 23.5 49.5l223 207q23 12 45 0q18 -10 23 -33q0 -25 -19 -37l-143 -135q-29 -27 -27 -45t31 -45l141 -117q18 -14 15 -37q-2 -12 -9.5 -22.5t-17.5 -14.5q-25 -10 -49 11l-217 178q-18 16 -19.5 40.5z" />
<glyph unicode="=" horiz-adv-x="841" d="M90 532.5q0 16.5 11.5 31t33.5 14.5h299h59.5t42 1t42 1h59.5q23 0 36 -13.5t13 -30t-11 -29.5t-38 -15l-209 -3h-289q-25 0 -37 13.5t-12 30zM135 700.5q0 16.5 11.5 30.5t33.5 14h299h59.5t42 1.5t42 1.5h59.5q23 0 36 -13.5t13 -30t-11 -29.5t-38 -16l-209 -2h-289 q-25 0 -37 13.5t-12 30z" />
<glyph unicode="&#x3e;" horiz-adv-x="585" d="M145 846q4 23 23 33q23 12 45 0l223 -207q25 -25 24 -49.5t-20 -40.5l-217 -179q-25 -20 -49 -10q-10 4 -17 14.5t-10 22.5q-6 18 13 37l143 117q29 27 30 45t-28 45l-141 135q-18 12 -19 37z" />
<glyph unicode="?" horiz-adv-x="825" d="M46 1217.5q3 37.5 15 72.5q20 61 59.5 111.5t89.5 86.5t109.5 53.5t124.5 14.5q55 -2 106.5 -19t92.5 -50t67.5 -80t32.5 -109q6 -72 -15 -134t-59 -118.5t-88.5 -105.5t-101.5 -92q-53 -47 -89 -88t-63.5 -86t-47 -98.5t-37.5 -122.5q-4 -18 -20.5 -25.5t-32 -4.5 t-25.5 17.5t-4 40.5q20 78 45.5 138.5t57.5 112.5t75 98.5t98 97.5q39 37 81 75.5t74 81.5t51 93.5t17 107.5q-12 92 -76.5 137t-142.5 50q-49 2 -96 -14.5t-87 -45.5t-69.5 -68.5t-46.5 -87.5q-6 -18 -8 -41.5t2 -46t14.5 -42t30.5 -27.5q8 -4 19.5 -6t21.5 0 q16 4 27.5 -7.5t11.5 -27t-13.5 -30.5t-43.5 -17q-39 -4 -72 16q-33 18 -52.5 49t-27.5 67t-5 73.5zM111 264q2 25 19 42.5t44 17.5q25 -2 42 -20.5t15 -43.5q0 -25 -18 -42t-43 -15q-27 0 -43 18.5t-16 42.5z" />
<glyph unicode="@" horiz-adv-x="1353" d="M-1.5 429q7.5 95 34.5 187q39 131 114.5 253t184.5 208q68 53 151.5 88t170.5 41t170 -20.5t151 -95.5q47 -49 76.5 -112t42.5 -128q14 -70 9 -144.5t-26 -142.5q-23 -78 -66.5 -153.5t-115.5 -120.5q-63 -39 -141 -45q-29 -2 -58.5 7t-52.5 32l-13 13t-18 7 q-8 -2 -19 -9t-20 -11q-18 -10 -37.5 -17.5t-41.5 -11.5q-43 -10 -75 3t-52.5 41t-30.5 64.5t-10 73.5q0 78 26 156q8 31 23.5 63.5t35 64.5t44 57.5t53.5 41.5q47 25 94 21t84 -41q6 -4 14.5 -9.5t14.5 -1.5q6 3 6 9q6 25 31 32q20 6 41 -4q12 -10 18 -24q4 -10 2 -20.5 t-6 -20.5q-18 -51 -35.5 -101.5t-32.5 -103.5q-10 -37 -20 -78t-10 -78q0 -23 8 -42t33 -19q23 2 43 7t38 15q59 33 97.5 96.5t54.5 127.5q16 57 22.5 121.5t-4.5 121.5q-12 59 -38.5 113.5t-71.5 95.5q-55 51 -123 66.5t-137.5 5.5t-135 -42t-116.5 -75 q-92 -76 -154.5 -179t-97.5 -216q-23 -78 -31 -162t13 -164q20 -90 73.5 -153.5t124 -102.5t155.5 -52t171 -3q115 12 218 63.5t181 137.5q68 74 119 166q10 20 33 24q20 4 37 -6q14 -10 18 -31q2 -14 -3 -28.5t-13 -24.5q-23 -43 -50.5 -82t-60.5 -74q-92 -104 -215 -164.5 t-260 -76.5q-102 -10 -202.5 7t-184.5 64.5t-146.5 123t-89.5 182.5q-23 94 -15.5 189zM418 410q2 -25 10 -45.5t24.5 -30.5t43.5 2q23 10 41 28.5t32 36.5q23 29 38.5 62t25.5 67q10 39 20 93.5t-2 93.5q-10 29 -35 37q-20 6 -41.5 -1.5t-37.5 -17.5q-16 -12 -32 -32.5 t-28 -45t-21.5 -49t-15.5 -43.5q-20 -59 -22 -112q-2 -18 0 -43z" />
<glyph unicode="A" horiz-adv-x="1669" d="M-4 403q2 23 18.5 37.5t36 15.5t35.5 -11.5t18 -43.5l-2 -24q0 -36 14 -67q18 -42 52 -70q35 -26 80 -40q30 -9 60 -9q16 0 32 2q47 4 104.5 37.5t113.5 79.5t105.5 94.5t84.5 82.5q66 70 122 135.5t113 143.5q16 12 33.5 8t29 -19.5t13.5 -36t-12 -40.5q-33 -45 -64 -84 t-62.5 -76t-65.5 -72.5t-73 -74.5q-43 -43 -92 -90.5t-104.5 -88t-115.5 -69.5t-122 -35q-18 -1 -36 -1q-58 1 -108 15q-66 20 -114 62q-46 40 -72 102q-22 53 -23 117q0 10 1 20zM475 827q8 63 38 113.5t74 83.5t99 48q43 12 91 12q13 0 26 -1q66 -6 120 -29.5t103 -64.5 q29 -21 55 -21q44 0 82 56q39 59 77 116.5t75 116.5l164 259q20 31 46.5 57t61.5 43q23 10 48.5 12t47.5 -10q31 -18 43 -57q8 -25 6.5 -53.5t-6.5 -55.5l-122 -434l-232 -821l-35 -123q-10 -20 -29.5 -25.5t-38 -0.5t-31.5 20t-9 38q8 23 17 56t16 53q12 51 17 101 q1 9 1 19q0 42 -18 85q-14 33 -28.5 64.5t-31.5 62.5q-31 59 -70.5 133t-91 138.5t-113 110.5t-132.5 52h-12q-71 0 -131 -44q-64 -48 -72 -132q-4 -27 -22.5 -37t-38 -6t-34 20.5t-10.5 44.5zM1198 800.5q0 -24.5 8 -38.5q12 -18 22.5 -37.5t20.5 -38.5q14 -27 27.5 -52.5 t26.5 -51.5v-2q16 -25 36.5 -24t36.5 54l129 428q29 98 57.5 195.5t57.5 196.5q14 45 13 62t-11 14t-26.5 -20.5t-34.5 -39.5q-43 -59 -84 -124t-82 -128q-37 -59 -75 -118.5t-79 -119.5q-12 -20 -22.5 -47.5t-15.5 -55.5t-5 -52.5z" />
<glyph unicode="B" horiz-adv-x="1122" d="M2 420q2 76 28.5 146.5t73 127t109.5 92t141 41.5q31 4 54.5 18.5t31.5 47.5l115 426q8 27 27.5 36t38 6t31 -18.5t7.5 -37.5l-47 -177q-10 -35 4.5 -55t42.5 -16q96 6 162 78q41 43 59 95q14 42 14 85q0 10 -1 20q-4 43 -21.5 83t-48 71t-72.5 49t-94 21h-10 q-50 -1 -98 -19q-53 -20 -99.5 -54t-81.5 -80t-53 -95q-6 -16 -23.5 -20.5t-34.5 1.5t-27.5 21.5t-2.5 38.5q20 63 64.5 120.5t102 98.5t125 65.5t134.5 24.5q84 0 147.5 -28.5t106.5 -76t65.5 -106.5t24.5 -121q1 -10 1 -20q0 -61 -22 -121q-24 -70 -77 -121 q-23 -23 -38 -39t-20 -31.5t2 -33t34 -43.5q90 -90 124 -228q17 -70 17 -140q0 -34 -4 -67q-16 -135 -85 -253.5t-181 -190.5q-119 -74 -251 -78h-18q-122 1 -226 51q-111 54 -183 158q-68 98 -68 233v15zM115 420v-14q0 -102 53 -178q57 -80 144 -120q74 -34 160 -34 q14 0 30 1q104 7 196 68q55 39 97.5 93.5t68 118t33.5 131.5q3 27 3 55q0 41 -7 82q-20 115 -77.5 193.5t-168.5 113.5q-28 7 -48 7q-7 0 -15 -1q-24 -4 -37 -51q-8 -31 -2 -57.5t35 -45.5q55 -33 96 -79t59 -107q6 -27 -4 -43t-26.5 -22.5t-34 0t-25.5 24.5q-14 43 -43 75 t-65.5 51t-80.5 29q-31 7 -61 6q-13 0 -26 -1q-55 -6 -101.5 -32t-80 -65.5t-52 -91t-20.5 -106.5zM313 414l62 231q8 23 27.5 29t38 1t29.5 -19.5t7 -32.5l-59 -226q-10 -23 -28.5 -29t-36 0.5t-31 18.5t-9.5 27z" />
<glyph unicode="C" horiz-adv-x="1144" d="M-4 1405q0 23 15.5 40t39.5 15q14 -2 27.5 -11t17.5 -26q0 -6 -2 -10q-1 -11 -1 -23q1 -44 13 -86q16 -54 44 -102q37 -55 91 -90t116.5 -52.5t129 -17.5t127.5 13q66 16 132.5 42.5t125.5 67.5q72 47 123.5 109.5t71.5 134.5q8 26 8 49.5t-8 45.5q-16 44 -72 57 q-19 4 -39 4q-56 0 -112 -33q-76 -45 -145.5 -118t-125 -153.5t-86.5 -136.5q-14 -33 -38.5 -40t-45 2.5t-31 31t4.5 45.5q29 51 69.5 114.5t92 127t111 122t124.5 98.5q64 41 130 57q29 7 59 7q37 0 75 -12q86 -27 119 -101q22 -50 22 -104q0 -27 -5 -55q-20 -100 -86 -186 t-158 -150q-96 -65 -216 -109q-115 -42 -227 -42h-10q-90 -10 -121 -92q-25 -57 -48 -126q-24 -70 -36 -140q-9 -53 -9 -107q0 -17 1 -34q4 -71 33 -132q41 -86 113 -119q54 -25 112 -25q19 0 39 3q74 12 135.5 63t99.5 120t47 143q2 16 2 30q0 55 -26 98q-18 31 -9 55.5 t29.5 37t46.5 6.5t42 -39q27 -67 27 -140q1 -26 -3 -54q-14 -102 -65 -190.5t-133 -153t-183 -83.5q-34 -6 -67 -6q-24 0 -48 3q-58 7 -108.5 31.5t-93.5 70t-70 110.5q-29 70 -35 148q-2 28 -2 56q1 50 7 100q10 79 32.5 155t46.5 143q12 29 12 54q-1 22 -9 41 q-20 42 -64 77q-94 66 -135 161t-41 210z" />
<glyph unicode="D" horiz-adv-x="1349" d="M6 426q8 115 64.5 204t148.5 136q70 35 146 41q23 4 51 24.5t33 38.5l120 449q8 29 28.5 39t40 6t33 -20.5t7.5 -38.5l-119 -445q-4 -31 7.5 -56.5t33.5 -41.5q123 -53 160 -180q8 -27 -3.5 -44.5t-28.5 -23.5t-35.5 0t-26.5 25q-16 51 -64 85q-48 36 -106 52 q-50 14 -101 13h-19q-62 -3 -108 -27q-59 -33 -98 -91.5t-49 -136.5q-2 -21 -2 -40q-1 -48 13 -87q20 -55 60 -93q42 -38 102 -56q49 -14 107 -14q13 0 27 1q84 6 177 45t181 118t166 201t133 292q31 94 45 187q10 72 10 139q0 20 -1 39q-4 85 -29 159t-74 129 q-72 82 -178 108q-58 14 -115 13q-49 1 -99 -9q-108 -22 -197 -87.5t-125 -167.5q-8 -18 -29 -23.5t-40.5 1.5t-31.5 24.5t-2 42.5q27 86 88.5 151.5t140.5 109.5q80 43 172 63q71 15 141 15q21 0 43 -1q91 -6 173 -41t143 -99q59 -63 92 -148q34 -84 44 -182q5 -45 4 -91 q0 -55 -6 -113q-12 -106 -44 -211q-57 -201 -146 -345.5t-195.5 -238.5t-220 -141t-220.5 -53q-13 -1 -26 -1q-79 0 -148 22q-80 24 -138 75q-56 51 -86 127q-25 63 -25 140q0 16 1 32zM315 371l66 247q12 25 32.5 31t39 0t30.5 -21.5t6 -33.5l-63 -240q-10 -25 -29.5 -31 t-39 0.5t-33 19.5t-9.5 28z" />
<glyph unicode="E" horiz-adv-x="1081" d="M-4 418v8q0 127 62 250q64 127 173 213q75 57 163 87q70 24 147 25q20 0 41 -2q-6 23 -22.5 35.5t-39.5 16.5q-94 12 -179 55t-142 121q-35 51 -55.5 114.5t-20.5 141.5q0 27 16.5 40t35 13t33.5 -11.5t13 -33.5q-1 -15 -1 -30q0 -95 54 -171q53 -74 130 -108.5 t163 -40.5q20 -1 41 -1q66 0 132 14q87 20 163 56q27 14 58.5 34t58.5 45.5t45 55t20 64.5q0 27 -8 50.5t-28 39.5q-31 25 -65 28q-7 1 -14 1q-28 0 -56 -10q-36 -12 -70.5 -36t-65.5 -57q-41 -45 -69.5 -98t-34.5 -102q-4 -25 -21.5 -36t-38 -10t-36 14t-15.5 38 q10 68 45 134.5t88 121.5q47 51 104.5 88t115.5 51q32 8 62 8q26 0 52 -6q55 -12 100 -59q28 -29 44 -68q13 -31 13 -67q0 -9 -1 -17q-4 -53 -26.5 -99t-57.5 -83t-80 -66.5t-90 -48.5q-31 -14 -66 -25.5t-71 -23.5q-16 -4 -31.5 -8t-32.5 -8q-31 -10 -31 -36q0 -7 2 -15 q4 -10 7.5 -17.5t7.5 -15.5q45 -18 71.5 -41t38 -44.5t10.5 -41t-14 -33.5q-12 -16 -33.5 -23.5t-48 -2t-55.5 27t-55 61.5q-50 15 -99 15q-46 1 -90 -13q-90 -28 -161 -94q-78 -72 -122 -170q-40 -90 -40 -185v-17q2 -80 28.5 -138.5t67.5 -96.5q41 -37 94 -55 q48 -16 99 -17q6 0 12 1q68 4 136.5 33t127.5 86q44 47 68 105q20 49 21 99q0 9 -1 17q0 39 16.5 57.5t37 18.5t38 -16.5t17.5 -46.5q0 -9 1 -17q0 -88 -38 -166q-41 -86 -113 -149q-68 -61 -147.5 -94t-157.5 -37q-12 -1 -23 -1q-70 -1 -136 21q-77 24 -136 78.5t-96 135.5 t-39 190z" />
<glyph unicode="F" horiz-adv-x="1241" d="M5 76.5q3 19.5 19.5 31t34.5 3.5q56 -22 109 -23q21 0 41 4q72 12 132 54t109.5 102.5t79.5 126.5q25 53 45.5 99t39 90t36 90.5t35.5 99.5q10 25 30.5 37t41 12t34 -11.5t7.5 -29.5q-20 -57 -39 -107.5t-38.5 -99.5t-41 -99t-47.5 -108q-37 -80 -95.5 -156.5t-134 -130 t-161.5 -73.5q-32 -7 -65 -7q-56 0 -114 21q-37 12 -49 33.5t-9 41zM128 1304q17 78 72.5 146t147.5 98q54 18 109 18q21 0 41 -2q76 -10 154.5 -25t152.5 -25q25 -4 49 -4q48 0 92 14q47 14 81 43t75 47q27 12 46 5t28.5 -23.5t8.5 -36t-18 -31.5q-45 -37 -86 -74t-61 -92 q-37 -80 -68.5 -162t-60.5 -168q-10 -31 -1 -60.5t44 -29.5h6q22 1 43 2q11 0 21 -1q32 -1 63 -5q27 49 55 84q12 12 28.5 13t29 -6t15.5 -22.5t-9 -35.5q-23 -35 -37 -63.5t-25.5 -57.5t-18.5 -60.5t-13 -70.5q-4 -25 -17.5 -34t-27 -7t-24.5 13t-13 28q0 33 5 64.5 t15 62.5q-29 3 -58 3q-15 0 -29 -1q-44 -2 -91 -6q-98 -12 -201 -47q-51 -16 -99 -38t-91 -48q-25 -14 -42.5 -10.5t-26.5 18t-7 33t16 34.5q45 35 111 64t143 51q47 20 75 50t46 77q27 78 54.5 156t62.5 155q12 27 -4.5 48.5t-42.5 23.5h-4h-2q-59 2 -123 18.5t-125.5 29.5 t-116.5 19q-12 1 -24 1q-41 0 -74 -15q-57 -25 -95 -73t-52 -101q-8 -31 -9 -60q1 -22 5 -43q10 -50 46 -81q29 -23 59.5 -30t59.5 -2t54.5 18.5t41.5 31.5q18 12 37 8t29 -17t9 -32.5t-21 -33.5q-74 -59 -156 -65q-9 -1 -18 -1q-73 0 -142 47q-68 45 -91 121q-13 44 -13 88 q0 34 7 67z" />
<glyph unicode="G" horiz-adv-x="1249" d="M0 1241q-2 23 12.5 41t38.5 18q14 2 29.5 -6t19.5 -24v-8q0 -115 68 -205q45 -59 109.5 -88t134.5 -36q26 -3 53 -3q45 0 91 8q73 12 136 37q61 25 120.5 60.5t108 81.5t82 100.5t46.5 113.5q3 17 3 33q0 31 -12 59q-20 43 -75 52q-12 2 -25 2l-135 -47 q-80 -54 -148 -140q-57 -72 -102 -150.5t-74 -142.5q-8 -18 -29.5 -24t-43 -1t-36 19.5t-10.5 36.5q33 78 87.5 170t125.5 176q45 53 95.5 98.5t104.5 75t111 42.5q28 7 57 7q27 0 54 -6q86 -18 128 -89q34 -56 34 -122q0 -16 -2 -32q-10 -82 -50 -155t-101.5 -134.5 t-138 -108.5t-156.5 -78q-109 -41 -222 -49q-78 -6 -92 -69q-8 -44 -8 -89q0 -18 1 -37q5 -63 34 -114q25 -41 69 -68.5t111 -37.5q17 -2 34 -2q64 0 131 30q85 37 142 113q6 25 20.5 65.5t37 75.5t52.5 52q13 8 27 8q19 0 39 -13q16 -10 24.5 -33.5t1.5 -56.5t-31.5 -76 t-73.5 -94q-20 -57 -39 -111.5t-37 -111.5q-9 -26 -9 -48q0 -45 40 -73q6 -2 11 -4t11 -6q51 -29 98 -71t64 -77q10 -23 6 -40t-16.5 -26t-28.5 -8t-31 15q-66 80 -158 126q-85 42 -181 42h-17q-47 -2 -99.5 -19.5t-98.5 -45t-80.5 -64.5t-45.5 -80q-6 -20 -6 -42.5t8.5 -40 t23.5 -28t40 -6.5q45 4 85 29t73.5 60.5t60.5 79.5t45 89q8 25 27.5 33t39 4t31 -17t4.5 -32q-23 -53 -55.5 -110.5t-74.5 -106.5t-94 -83t-111 -40q-18 -2 -34 -2q-40 0 -70 14q-44 19 -67.5 55t-26.5 85v15q0 42 13 83q18 57 60.5 102t95.5 79t115.5 54.5t121.5 26.5h11 q76 12 100 76q8 23 13 39t14 39q4 14 -1 20t-20 -2h-2q-47 -29 -101 -41q-40 -9 -83 -9q-15 0 -29 1q-100 6 -171 46t-111 106q-43 66 -54 149q-5 33 -5 67q0 54 11 111q2 10 2 20q0 55 -59 87q-199 100 -217 356z" />
<glyph unicode="H" horiz-adv-x="1454" d="M3 158q-2 16 -2 34q0 60 30 132q39 92 132 191t253 190q66 37 129 62.5t123 55.5q51 29 82.5 79t37.5 79q14 51 25.5 94t23 84t23.5 84t29 92q9 26 9 44q0 15 -6 23q-13 20 -69 25q-82 8 -169 32t-160 30q-10 1 -19 1q-80 0 -138 -47q-65 -52 -85 -143q-5 -24 -5 -45 q0 -32 11 -60q18 -45 55 -69q32 -20 73 -20h14q50 4 102 43q18 12 35.5 8t27.5 -17.5t9 -31.5t-19 -33q-73 -57 -151 -61h-16q-68 0 -124 30q-62 34 -95 105q-23 47 -23 102q0 28 6 58q10 63 41.5 114.5t77.5 86.5q45 36 103 54q52 16 109 16q6 0 13 -1q57 -2 115.5 -14.5 t115.5 -23.5t113 -15q12 -1 24 -1q42 0 82 11q47 14 79 42t73 46q25 12 43 5t28.5 -22.5t8.5 -35t-17 -31.5q-43 -35 -83 -70.5t-58 -89.5q-43 -96 -65.5 -190t-51.5 -195q-6 -31 11.5 -50t52.5 -9q88 33 197.5 81t212 106.5t183 122t115.5 126.5q19 33 19 60q0 14 -6 27 q-16 36 -54 38h-5q-41 -1 -73 -31q-34 -32 -60 -78.5t-44 -96.5t-31 -83q-10 -23 -30.5 -36t-40 -15t-32.5 6t-7 29q18 55 44.5 127t65.5 135.5t92.5 106.5t124.5 43q43 0 79 -21.5t55.5 -58.5t19.5 -85t-27 -102q-25 -49 -64.5 -94t-86.5 -84t-96.5 -70.5t-90.5 -56.5 q-31 -16 -62.5 -55t-41.5 -74q-23 -76 -51.5 -178t-50.5 -211q-14 -66 -23.5 -129t-13.5 -121q-2 -29 -2 -54.5t2 -49.5q4 -47 18 -80q6 -20 -5 -37.5t-30.5 -25t-41 2t-33.5 41.5q-19 65 -19 149q0 27 2 56q8 119 33 244q20 102 45 191.5t47 158.5q8 25 -12.5 38t-38.5 7 q-86 -35 -179 -71.5t-186.5 -74.5t-179.5 -77t-155 -78q-117 -66 -189 -140q-72 -72 -106 -138q-33 -64 -32 -115q0 -54 30 -78q22 -18 57 -18q18 1 39 5q63 14 140 76t159 175.5t149 290.5q8 23 31 35t43.5 12t32.5 -13.5t2 -42.5q-80 -219 -182.5 -360t-207 -213 t-198.5 -79q-11 -1 -22 -1q-79 0 -134 45q-47 39 -58 113z" />
<glyph unicode="I" horiz-adv-x="708" d="M0 1145v14q0 99 52 173q56 78 161 114l430 104q39 10 61.5 20.5t51.5 26.5q25 12 43 4t28.5 -25t8.5 -36.5t-17 -32.5q-23 -18 -36 -28.5t-22 -20.5t-17.5 -25.5t-16.5 -41.5l-215 -791q-18 -68 -47 -161t-67 -186t-84 -175t-99 -129q-23 -23 -45.5 -20t-37.5 18.5 t-16.5 39t23.5 46.5q43 37 83 109.5t74 156.5t60.5 166t40.5 137l187 707q7 17 7 32q1 21 -13 39q-17 23 -49 23q-10 0 -23 -2l-252 -51q-33 -6 -59.5 -24.5t-46 -44.5t-29.5 -55.5t-10 -60.5q1 -59 33 -105q29 -42 88 -42h10q59 4 116 41q20 14 38 9t28 -20.5t9 -36 t-19 -34.5q-63 -49 -134 -59q-20 -3 -40 -2q-48 0 -92 16q-60 24 -101 78.5t-45 134.5z" />
<glyph unicode="J" horiz-adv-x="1034" d="M3 100q-2 16 -2 33q0 31 9 65q13 50 46.5 100t88.5 91q43 31 93.5 56.5t100.5 45t97 35t86 25.5q20 6 32.5 -7.5t12.5 -32.5t-12 -39.5t-41 -31.5q-29 -8 -67.5 -21t-81.5 -31.5t-87.5 -42t-78.5 -50.5q-55 -45 -74 -103q-8 -24 -8 -44q0 -31 18 -56q23 -29 49.5 -37 t57.5 -4q68 8 119 50t91 100.5t69.5 123t51.5 117.5q51 127 95 260q20 63 43.5 138t47 152t45 153t40.5 141q4 14 6 32.5t-2 34t-17.5 23.5t-39.5 6q-47 -8 -87 -13t-78 -10t-75 -14.5t-78 -27.5q-39 -16 -66.5 -44t-46 -60.5t-26.5 -69.5q-5 -25 -5 -48q0 -11 1 -22 q6 -55 31.5 -83.5t61.5 -37.5q16 -3 33 -3q22 0 45 5q42 11 79 35q18 12 35.5 7t27.5 -18t9 -32.5t-19 -34.5q-59 -45 -126 -56q-25 -4 -49 -4q-40 0 -77 11q-59 19 -102 64t-54 110q-5 27 -5 54q0 31 6 62q12 60 39.5 111.5t71.5 90.5t99 57q63 20 142 36.5t159 34t154 38 t127 47.5q29 12 49 4t29.5 -26.5t7.5 -40t-21 -34.5q-43 -35 -69.5 -75.5t-44.5 -94.5l-183 -602q-12 -43 9.5 -50t54.5 5l55 17q20 8 36.5 0t24 -24.5t0 -36t-31.5 -34.5l-156 -67q-66 -27 -98 -102q-31 -76 -66.5 -153t-85 -141.5t-115 -111.5t-155.5 -61q-23 -4 -46 -4 q-39 0 -76 11q-60 17 -101 72q-25 35 -32 82z" />
<glyph unicode="K" horiz-adv-x="1435" d="M2 240q8 58 43 122t105 134q47 45 108 90t141 92q59 35 124 61.5t120 61.5q45 27 84 83t53 101q14 51 26.5 99.5t27.5 95.5q16 63 43 137q9 26 9 44q0 34 -32 38q-49 0 -96 8q-78 13 -150 29q-25 5 -49 6q-46 0 -90 -19q-66 -27 -102.5 -84t-44.5 -116q-2 -17 -2 -32 q0 -39 14 -69q20 -42 58 -62q27 -13 60 -13q13 1 27 3q49 8 99 46q18 12 35.5 8t26.5 -17.5t8 -32t-19 -32.5q-67 -52 -141 -62q-19 -2 -37 -3q-51 0 -97 21q-60 28 -99 89q-33 53 -33 128q0 12 1 24q2 45 17.5 91t42 86t66.5 72.5t91 49.5q58 19 109 19q13 1 25 -1 q62 -6 120 -17.5t115 -18.5q16 -2 33 -2q43 0 90 13q47 14 78.5 42t72.5 46q25 12 43.5 5t28.5 -22t8 -34.5t-16 -31.5q-45 -35 -85 -71t-58 -89q-23 -45 -37.5 -89t-26.5 -89l-43 -172q-4 -14 -1 -31t10 -29t20.5 -17t29.5 3q102 53 224 141q70 51 138 113.5t123.5 130 t93.5 139.5t48 143q6 29 23.5 40.5t37 8.5t33 -16.5t11.5 -34.5q-18 -100 -65.5 -188t-113 -165t-143.5 -143.5t-156 -123.5q-12 -10 -21 -27.5t-14.5 -38t-6.5 -39t6 -30.5q20 -33 32.5 -73t14.5 -77q1 -15 1 -29q0 -75 -18 -148q-20 -87 -30 -177q-6 -39 -10 -80v-12 q0 -35 18 -66q18 -33 48 -60.5t50 -31.5q25 -10 35 -26.5t9 -33t-13.5 -29.5t-30.5 -15q-25 0 -51.5 11t-52 30.5t-48 45t-36.5 54.5q-29 49 -33 103q-1 18 -1 37q0 36 5 73q9 88 31 174q18 73 19 145q0 13 -1 27q-4 37 -12 68.5t-27 56.5q-16 18 -35.5 23.5t-42 2 t-44 -12.5t-40.5 -17q-86 -37 -185 -78t-195.5 -88t-183.5 -105.5t-150 -132.5q-72 -83 -76 -153q0 -7 -1 -14q0 -59 34 -84q23 -19 61 -19q15 0 33 3q61 11 135 69.5t152.5 170t146.5 288.5q8 23 30.5 35t43 12t33 -13.5t2.5 -42.5q-80 -219 -183.5 -355t-205.5 -204 q-103 -68 -193 -74q-9 -1 -18 -1q-77 0 -128 42q-35 31 -52 76q-12 31 -12 67q0 18 3 36z" />
<glyph unicode="L" horiz-adv-x="1335" d="M5 182q7 58 53 106t130 58q13 1 27 2q24 0 49 -5q39 -7 74 -17q41 -12 76 -12l1 -1q35 0 54 56q20 59 40.5 126.5t37.5 139.5q2 8 2 16q0 33 -27 57q-33 30 -67 44q-102 41 -160.5 121.5t-83.5 187.5q-6 27 5 44t29.5 22.5t37 -4t24.5 -36.5q16 -86 69.5 -152.5 t137.5 -94.5q52 -18 106 -20q10 0 20 -1q44 1 88 9q54 10 106.5 30.5t99.5 46.5q57 33 112.5 85t98.5 112.5t69.5 125t28.5 126.5v7q1 46 -23 83q-26 39 -81 39q-43 0 -84 -23.5t-78 -62.5t-70 -89.5t-59 -105.5q-39 -78 -66.5 -157.5t-44.5 -141.5q-8 -29 -28.5 -40t-40 -8 t-33.5 19.5t-10 43.5q16 72 48 159.5t77 175.5q35 72 78.5 136.5t93.5 113.5q52 49 110 76q54 25 112 25h9q88 -6 137 -70t53 -150v-11q-1 -77 -27 -155q-28 -84 -80 -162.5t-120.5 -144t-144.5 -108.5q-23 -12 -47.5 -23.5t-51.5 -21.5q-31 -12 -63.5 -23.5t-61 -27 t-51 -36t-32.5 -53.5l-82 -266q-8 -25 -15.5 -49t-7.5 -48t8 -45.5t31 -35.5q72 -47 150.5 -77.5t158.5 -34.5h18q71 0 140 25q78 28 147 95q18 16 39 15.5t35 -13t17.5 -33t-13.5 -42.5q-78 -78 -169 -113t-186 -36h-6q-91 0 -183 28q-94 28 -181 82q-31 18 -49 27t-33.5 9 t-33 -10t-43.5 -30q-51 -36 -120 -56q-40 -11 -78 -12q-27 0 -54 6q-84 16 -120 68q-30 44 -30 92q0 9 1 18zM111 171q-1 -37 31 -63q21 -17 55 -17q18 0 39 5q27 6 55 18.5t55 30.5q28 27 28 45q0 15 -20 25q-27 14 -59.5 25.5t-61.5 15.5q-13 2 -25 2q-42 0 -66 -22 q-30 -28 -31 -65z" />
<glyph unicode="M" horiz-adv-x="1710" d="M1 52q-7 22 0 41.5t25.5 29.5t39.5 0q40 -17 76 -19h12q31 0 65 11q68 20 126 74.5t107.5 131t91.5 171t79 194.5q31 88 57.5 176t51 169t47 152.5t44.5 127.5q9 25 9 43q0 39 -45 39h-9q-41 -4 -99 -12.5t-117.5 -20.5t-113 -28.5t-83.5 -37.5q-47 -31 -69 -84t-22 -108 q0 -53 25 -88q25 -36 61 -50q25 -10 54 -9q12 -1 25 1q42 6 77 35q16 16 37 10q16 -4 27.5 -21t11.5 -34q0 -10 -6 -19t-15 -16q-63 -53 -133 -60q-15 -1 -28 -1q-52 0 -100 20q-60 26 -100 84t-42 138v15q0 41 9 82q11 48 36 90t61.5 73.5t83.5 50.5q98 35 198.5 51 t201.5 37q66 14 98.5 24.5t57 23.5t50 29.5t78.5 43.5q10 4 23.5 6t26.5 -2q16 -6 26 -23.5t6 -36.5q-2 -12 -7 -22t-7 -23q-2 -20 -2 -43q0 -18 1 -36q3 -44 10 -92t16.5 -98t17.5 -97q2 -31 -9 -51.5t-26.5 -29.5t-31 -5t-19.5 22l-47 246q-8 31 -31.5 31t-38.5 -29 q-29 -61 -54.5 -137t-52 -161t-55 -176t-59.5 -181q-41 -115 -89 -224.5t-106.5 -198.5t-129 -152.5t-158.5 -88.5q-48 -13 -97 -13h-7q-54 1 -105 21q-29 12 -36 34zM926 541q-5 20 -5 41q0 25 7 53q12 51 35.5 101t52 97.5t51.5 79.5q49 68 102.5 148t108.5 159.5 t112.5 154.5t116.5 130q41 39 85 68t96 39q27 6 58.5 9t63 1t60 -10t49.5 -25q12 -12 11 -28.5t-9 -31t-21.5 -21.5t-27.5 1q-20 10 -47 9.5t-49 -21.5q-14 -14 -27.5 -38.5t-24 -53.5t-19.5 -58.5t-17 -50.5q-49 -141 -102.5 -318t-89.5 -361.5t-45 -363.5q-2 -32 -1 -63 q0 -142 33 -264q6 -23 -5.5 -38t-29.5 -22t-38.5 -2t-29.5 27q-31 107 -36 229q-1 33 -1 66q-1 91 9 186q14 130 41.5 264t62.5 262t74 248t74 222q6 29 -17.5 36t-48.5 -16q-51 -53 -89 -102t-70.5 -98t-65.5 -101.5t-72 -111.5q-23 -35 -36 -71q-11 -31 -11 -66v-11 q1 -14 1 -31q0 -32 -3 -74q-4 -62 -20.5 -120.5t-51.5 -100.5t-94 -44q-39 0 -65.5 25.5t-34.5 60.5zM1008.5 573.5q-1.5 -28.5 21.5 -30.5t37 22.5t21.5 57t10.5 65.5t3 49q2 18 -10.5 19.5t-22.5 -8.5q-8 -8 -23.5 -40t-25.5 -69t-11.5 -65.5z" />
<glyph unicode="N" horiz-adv-x="1579" d="M4 52.5q6 19.5 23.5 29.5t38.5 0q40 -16 80 -17q4 0 9 -1q36 0 74 12q51 14 96.5 47t82 75t65.5 90t49 97q51 113 93 227.5t80 229t77 231.5t86 232q4 14 4 25q0 32 -37 33q-5 0 -10 -1q-47 -8 -107.5 -14.5t-122 -15.5t-117.5 -23.5t-93 -38.5q-47 -33 -75 -88.5 t-32 -110.5v-15q0 -54 25 -96q29 -48 94 -59q11 -2 22 -2q60 0 107 47q14 14 32.5 10t31 -17t12.5 -32.5t-19 -36.5q-43 -35 -97 -52q-40 -13 -80 -13q-14 0 -29 2q-45 6 -83 27.5t-66 54.5t-44 75t-18 89q0 51 15 102t43 96t68 81t87 54q98 35 180 48.5t160.5 26t160.5 38 t181 84.5q12 6 25.5 11t25.5 3q23 -4 39 -23.5t6 -47.5q-4 -10 -7 -19.5t-5 -19.5q-2 -12 -2 -31.5t2 -48.5q4 -57 12 -130t19.5 -156t22.5 -159.5t20.5 -138t15.5 -92.5q2 -31 -9.5 -54.5t-26.5 -34.5t-30.5 -10t-19.5 19q-27 166 -50.5 316.5t-46.5 316.5q-4 33 -27.5 37 t-39.5 -23q-49 -111 -91 -225.5t-82 -231t-81 -233t-88 -229.5q-27 -63 -61.5 -126t-80 -116t-100.5 -96t-123 -66q-58 -18 -114 -19h-4q-54 0 -107 21q-31 12 -38 34t-1 41.5zM1100 149q2 46 14 102t32.5 118.5t43.5 128.5q31 88 72 206.5t89 241.5t98 232.5t99 179.5 q35 51 78 93t94 71q41 25 87 39t94 14q57 0 114 -23q33 -12 45 -43q6 -16 1 -34.5t-21 -26.5q-12 -8 -33 0q-49 20 -99 20q-36 0 -73 -10q-61 -16 -112.5 -61t-94.5 -109q-45 -66 -89 -156t-83 -188t-70.5 -194.5t-52.5 -171.5q-10 -38 -15 -88q-2 -19 -2 -37q0 -29 5 -54 q15 -57 25 -115q7 -40 7 -81q0 -17 -1 -35q-2 -29 -12.5 -58.5t-28 -54t-42 -41t-55.5 -16.5h-6q-32 0 -58 20q-28 22 -40 54q-10 27 -10 64v13zM1197 173q-3 -36 1 -63.5t23 -27.5q16 0 30.5 25.5t16.5 62.5q0 27 -6.5 59.5t-14.5 65.5q-6 16 -16.5 15t-16.5 -21 q-2 -12 -8 -46t-9 -70z" />
<glyph unicode="O" horiz-adv-x="1230" d="M-2 506q0 100 18.5 204.5t49 202t70.5 184.5t85 150q12 16 26.5 29.5t37.5 7.5q23 -4 36 -25.5t7 -44.5q-4 -12 -11.5 -21t-13.5 -19q-37 -49 -71.5 -124t-61.5 -163t-43 -184.5t-17 -186.5v-9q0 -85 17 -161q18 -80 59 -135q42 -55 94 -84q48 -26 101 -26h11 q60 3 126 39t131 108q63 70 117.5 159t95.5 185t70 194.5t45 190.5q4 31 8 77t4 99t-5 107.5t-19 101.5q-16 53 -50 96t-94 47h-11q-50 1 -102 -33q-58 -38 -104 -98q-68 -88 -104 -216q-32 -113 -33 -229q0 -16 1 -32q5 -133 57.5 -253t160.5 -191q16 -10 17.5 -31t-9 -37 t-30 -24.5t-43.5 4.5q-129 88 -191 228q-62 141 -70 295q-1 23 -2 45q0 131 37 257q43 148 127 256q66 82 150 128q72 39 143 39l25 -1q72 -6 131 -56.5t94 -158.5q16 -53 23.5 -111.5t7.5 -116t-5.5 -110.5t-11.5 -96q-20 -123 -56 -243t-89 -233q-14 -30 -14 -49 q0 -15 8 -23q11 -10 28 -10q14 0 33 7q80 31 156 91t119 136q8 12 16 22.5t25 14.5q23 8 41 -4.5t20 -34.5q0 -12 -2 -19q-2 -12 -14 -28q-104 -164 -277 -250q-43 -23 -90 -37t-96 -18q-41 -4 -66.5 -19.5t-56.5 -44.5q-16 -23 -35 -41q-86 -96 -176 -141t-175 -46h-4 q-83 0 -156 41q-75 42 -128 120q-49 72 -70.5 162t-21.5 190z" />
<glyph unicode="P" horiz-adv-x="1302" d="M1 32.5q1 20.5 15.5 33t34.5 6.5q44 -12 84 -12q25 0 51 5q64 13 117 52q86 66 142.5 177.5t95.5 240.5t65.5 260t55.5 235q12 45 29.5 96.5t41 98.5t55 88t76.5 65q25 14 45.5 9t31.5 -19t11 -33.5t-14 -34.5q-37 -29 -61.5 -56t-42 -59t-32 -72t-30.5 -91 q-18 -59 -31.5 -107.5t-23.5 -95.5q-3 -15 -3 -28q0 -76 91 -76q94 4 170 30q88 33 151.5 105t87.5 194q8 38 8 78q0 20 -2 40q-6 61 -27.5 116t-59 103.5t-91.5 84.5q-66 42 -144 56q-45 8 -89 8q-33 0 -67 -4q-80 -10 -154 -45t-129 -86q-86 -82 -133 -200 q-34 -85 -33 -171q0 -33 4 -66q16 -94 70 -165q12 -16 16 -35t-10 -35q-4 -6 -17 -14q-12 -6 -28.5 -8.5t-26.5 6.5q-4 2 -8 6q-72 88 -96 194q-12 58 -12 118q1 17 1 34q4 78 29 150.5t68 138t98 114.5q63 59 145 101.5t172 60.5q62 12 125 12q27 0 55 -2q90 -8 171 -47 q80 -39 136 -99.5t90 -134t43 -154.5q4 -32 4 -63q0 -49 -9 -98q-29 -156 -112 -253t-200 -138q-97 -33 -210 -33h-25h-9q-33 0 -61 -13q-32 -15 -43 -56q-18 -74 -42.5 -147.5t-58.5 -140.5t-81 -126t-111 -104q-66 -47 -140 -65q-35 -9 -71 -9q-40 0 -81 10 q-39 8 -53.5 28.5t-13.5 41z" />
<glyph unicode="Q" horiz-adv-x="1241" d="M2 182q4 35 24.5 66t51.5 49q41 23 86 27q14 1 28 1l62 -6q115 -18 221 -81q27 -18 52.5 -19.5t48 8t42 23.5t31.5 26q76 68 137.5 147t112.5 167q61 104 107.5 219t62.5 238q7 47 7 93q0 23 -2 46q-5 69 -34 135q-31 70 -90 106.5t-128 46.5q-25 3 -50 3q-44 0 -90 -11 q-72 -16 -129 -53q-102 -66 -163.5 -176.5t-84.5 -226.5q-10 -51 -15 -114q-2 -24 -2 -47q0 -39 5 -77q8 -61 29.5 -117.5t62.5 -93.5q31 -29 72 -41q22 -7 45 -7l37 5q39 10 67.5 38t44.5 62q12 29 12.5 56.5t-20.5 52.5q-20 25 -15 48.5t22.5 34.5t42 4t44.5 -40 q27 -43 28 -91v-5q0 -45 -17 -90q-23 -53 -63 -96t-93 -64q-41 -16 -84 -16q-11 0 -22 1q-56 5 -103 27q-74 37 -117 103.5t-62 145.5q-17 75 -17 154v9q1 84 14 158q12 70 36.5 140.5t61.5 135t87 119.5t114 94q76 45 165 65q58 14 115 14q30 0 60 -4q86 -11 159.5 -56 t120.5 -132q45 -80 54 -170q5 -44 5 -87q0 -46 -5 -91q-18 -133 -67.5 -256t-115.5 -239q-61 -104 -135 -202.5t-166 -178.5q-6 -4 -13 -13.5t-10 -21.5t0 -24.5t19 -22.5q39 -29 73 -56.5t72 -54.5q61 -43 134 -79q62 -30 127 -30q11 0 22 1q55 6 102.5 34.5t83.5 65.5 q14 16 34 18.5t36 -10.5q18 -10 21.5 -33.5t-13.5 -39.5q-49 -51 -110.5 -88t-132.5 -48q-23 -3 -46 -3q-73 0 -141 30q-90 39 -168 92q-41 31 -83 61.5t-83 63.5q-31 23 -79 26h-13q-41 0 -80 -16q-47 -16 -94 -26.5t-96 -10.5t-97.5 13.5t-86.5 44.5q-35 29 -52 67 q-15 32 -15 65q0 7 1 15zM102.5 164q1.5 -19 12.5 -33q18 -25 46.5 -36t57.5 -15q18 -2 36 -2q22 0 44 3q39 5 76 17q35 10 37 32t-31 38q-80 45 -162 53q-29 4 -57.5 0t-46.5 -24q-14 -14 -12.5 -33z" />
<glyph unicode="R" horiz-adv-x="1386" d="M5 152.5q5 21.5 21.5 35t36.5 7.5q44 -14 84 -14q33 -1 63 9q66 20 118.5 66.5t91.5 112t63 133.5q37 98 57.5 173t36 145.5t32 147t44.5 179.5q12 47 29.5 97t42.5 98.5t57.5 88t77.5 66.5q25 14 45.5 9t31.5 -20.5t11 -34.5t-14 -34q-37 -31 -61.5 -58.5t-43 -59 t-33 -70.5t-28.5 -90q-16 -47 -26.5 -90t-20.5 -82q-2 -15 -2 -29q1 -38 17 -65q22 -37 75 -37q31 2 60.5 5t58.5 11q76 18 134 59t98 98.5t60.5 125t20.5 135.5q0 76 -24.5 149.5t-74.5 130t-124 92t-172 37.5h-18q-116 0 -214 -47q-106 -51 -182 -141t-110 -206 q-22 -73 -22 -152q0 -46 7 -93q12 -90 68 -163q18 -25 14.5 -48.5t-20.5 -36t-40.5 -10.5t-43.5 29q-29 35 -51.5 90t-30.5 88q-17 76 -17 149q0 90 26 174q48 154 157 267q90 94 210.5 149.5t260.5 57.5h11q116 0 207 -42q95 -44 159.5 -116t96.5 -165q30 -88 30 -179v-12 q0 -68 -16.5 -135.5t-49.5 -129t-81 -114.5t-112 -90q-35 -20 -43 -42t-4 -40.5t16.5 -33.5t20.5 -23q53 -63 75 -131q22 -67 25 -135q1 -21 1 -43q0 -45 -4 -89q-6 -64 -9 -118v-17q-1 -46 9 -84q12 -45 53 -76q31 -23 57.5 -31t46.5 -3q27 2 42.5 -9.5t21.5 -28t0 -34 t-23 -27.5q-29 -13 -63 -13q-19 0 -39 4q-56 11 -109 50q-57 41 -79 97q-21 58 -24 122q-1 24 -1 49q0 41 3 85q3 39 3 79q0 31 -2 63q-4 70 -27 137t-82 124q-29 25 -75 46t-93 27q-11 1 -22 1q-35 1 -66 -13q-41 -18 -57 -67q-14 -41 -21.5 -74t-23.5 -74 q-29 -84 -80 -164.5t-119.5 -141t-153.5 -89.5q-46 -16 -94 -16q-42 0 -86 12q-37 8 -49 28.5t-7 42z" />
<glyph unicode="S" horiz-adv-x="1189" d="M0 502q6 86 40 163.5t94 134.5q58 56 140 82q49 16 104 17q38 0 79 -8q72 -12 126 -47t85 -84q32 -48 38 -110q1 -10 1 -22q0 -52 -23 -108q-10 -23 -28.5 -28t-36 2.5t-26.5 22.5t-3 34q13 31 13 63q0 8 -1 16q-4 40 -23.5 72.5t-53 56t-74.5 32.5q-29 6 -57 6 q-40 -1 -76 -13q-60 -20 -105 -64t-70.5 -105.5t-29.5 -127.5q-1 -14 -1 -28q0 -77 28 -137q34 -70 92 -116q56 -46 132 -68q59 -17 120 -16q17 0 34 1q78 6 152.5 40t130.5 99q47 53 75.5 120t36.5 140q3 29 3 59q0 83 -24 165q-34 112 -71 221q-10 33 -43 51t-65 20 q-25 0 -48.5 2t-46.5 7q-184 33 -286 155q-92 110 -91 271q0 18 1 36q2 29 19.5 41.5t36.5 11.5t33.5 -14.5t12.5 -36.5q-2 -21 -2 -41q0 -49 14 -93q20 -62 58.5 -111t94.5 -82t124 -45q44 -7 89 -7q60 0 122 12q108 21 198 62q68 35 122.5 83t70.5 114q6 25 6 47 q0 16 -3 30q-7 34 -27.5 57.5t-50.5 35.5t-62 14h-11q-48 -1 -84 -17q-40 -18 -69 -50.5t-46.5 -74.5t-23.5 -89q-4 -35 -1 -59.5t7 -59.5q4 -20 -8 -33.5t-28 -17.5q-23 -6 -44.5 3t-23.5 34q-6 41 -10 69q-2 14 -2 30t2 36q8 66 32.5 125t66.5 103t102.5 70.5t138.5 26.5 q57 0 107 -19t85 -57q35 -39 48 -95q5 -24 6 -50q0 -37 -11 -78q-25 -94 -93.5 -157.5t-154.5 -104.5q-51 -23 -108 -43q-31 -10 -42 -38.5t-5 -57.5q0 -4 4 -12q38 -104 68 -222q25 -99 25 -185q0 -17 -1 -34q-6 -102 -49 -196t-115 -166q-76 -78 -171 -116t-193 -40h-12 q-93 0 -180 31q-93 33 -162.5 96.5t-109.5 154.5q-33 76 -33 170q0 18 1 38z" />
<glyph unicode="T" horiz-adv-x="860" d="M-58 56.5q3 19.5 17 32.5t35 5q49 -16 93 -16q29 0 57 6q70 18 128 63.5t103 108.5t71 131q74 184 122.5 369.5t101.5 371.5q10 33 22.5 77t26.5 90t29.5 90.5t31.5 76.5q27 53 56.5 90t60.5 64q51 40 105 56q41 12 81 12q13 0 25 -1q66 -4 110 -32.5t66 -68.5 q21 -38 20 -82q0 -48 -24 -91q-23 -41 -67 -69.5t-107 -34.5q-10 0 -29.5 1t-41 2t-44 4t-41.5 5q-11 1 -20 1q-87 0 -119 -95q-10 -27 -15 -48.5t-16 -50.5q-55 -190 -106 -380.5t-123 -378.5q-31 -82 -85 -162t-126 -137.5t-158 -83.5q-40 -12 -82 -11q-47 0 -96 15 q-37 8 -51 29.5t-11 41zM-25 1145q-1 10 -1 20q0 61 22 119q24 68 78 121q31 31 70.5 49.5t85.5 29.5t96 14q30 2 57 2q19 0 37 -1q80 -2 149.5 -15.5t137.5 -25.5q12 -4 17 -20.5t1 -34t-15.5 -30.5t-31.5 -7q-68 12 -129.5 23.5t-126.5 15.5q-17 1 -35 1l-125 -12 q-80 -14 -121 -61q-33 -39 -49 -84t-16 -90q0 -61 28.5 -102t70.5 -57q23 -9 48 -8q20 0 42 6q48 12 87 55q16 14 35 10t30 -17.5t11 -33t-18 -35.5q-66 -57 -140 -71q-28 -6 -54 -6q-42 0 -82 14q-64 24 -108 82.5t-51 148.5zM901.5 1438.5q-4.5 -17.5 26.5 -21.5 q16 -4 42.5 -6t54.5 -4t51.5 -2h35.5q54 5 78 33q23 25 22 54q0 32 -28 62q-26 26 -70 29q-29 2 -62.5 -8t-68.5 -37q-37 -27 -65 -68q-12 -14 -16.5 -31.5z" />
<glyph unicode="U" horiz-adv-x="1445" d="M7 982v7q0 97 29 185q30 90 87 160.5t139 101.5q74 27 154 36t156.5 17t148.5 22.5t131 51.5q12 6 24.5 13t24.5 11q23 10 43 8q18 -2 30.5 -20.5t8.5 -36.5q-2 -8 -8 -15t-10 -12q-10 -8 -19.5 -15t-19.5 -15t-17.5 -14.5t-15.5 -16.5q-14 -14 -25 -35 q-35 -57 -74.5 -141t-77.5 -183.5t-73 -207t-59 -213.5q-4 -25 -24.5 -36t-42 -11t-38 10t-12.5 33q20 90 47 180t57.5 176t62.5 165t64 144q8 20 6 32.5t-9 19t-17 8.5t-19 0q-49 -6 -100 -8.5t-102 -7.5t-96.5 -16t-81.5 -36q-51 -35 -87 -90t-52 -119q-15 -58 -15 -120 v-15q2 -70 25.5 -134.5t70.5 -119.5t119 -90q86 -41 174 -41t172 51q68 41 118 108.5t70 149.5q8 33 24.5 45.5t35 9t33 -17.5t16.5 -37q-12 -70 -44 -132t-78 -114.5t-102.5 -90.5t-119.5 -58q-33 -10 -65.5 -31.5t-36.5 -60.5q-4 -43 -4 -79.5t4 -66.5q17 -104 75 -141 q42 -27 92 -27q19 0 39 4q176 33 275 203q23 39 47.5 99.5t50 130t51 146.5t48 149.5t40 136t27.5 110.5q12 47 21.5 95.5t23.5 95.5q18 58 51 82q27 20 50 19q6 0 12 -1q28 -6 44 -38q8 -16 7 -36q0 -22 -8 -49q-14 -45 -37 -93t-39 -93q-37 -102 -73 -216t-64.5 -225.5 t-49 -214t-28.5 -182.5q-4 -34 -4 -65q0 -46 9 -86q15 -64 67 -133q20 -27 17 -48.5t-17.5 -35t-35 -15.5t-36.5 13q-29 25 -53.5 68.5t-40 94t-20.5 103.5q-2 20 -2 40q0 31 5 58q-53 -98 -141 -155.5t-199 -71.5q-23 -3 -45 -3q-34 0 -66 7q-54 12 -98.5 45t-74 88 t-37.5 135q-3 23 -3 48q0 13 1 26q2 39 6 82q1 6 1 12q1 32 -19 48q-22 20 -58 30q-117 37 -191.5 111.5t-111.5 167t-38 193.5z" />
<glyph unicode="V" horiz-adv-x="1380" d="M-2 1034q0 72 16.5 139.5t49 126t77.5 101.5t105 65q74 27 147.5 36t144 17.5t137 22.5t128.5 51q10 6 25.5 15.5t31.5 13.5q20 8 37.5 2t27 -18.5t8.5 -29.5t-20 -34q-16 -16 -35.5 -29.5t-35.5 -31.5q-8 -10 -19.5 -26.5t-21.5 -37t-19.5 -40t-11.5 -31.5 q-37 -164 -74 -318t-73 -319q-6 -20 -25.5 -29.5t-39 -10.5t-34 8t-10.5 25q37 168 74 327t74 327q10 37 -2.5 52t-51.5 13q-47 -6 -93 -8t-90 -7t-85 -16.5t-78 -35.5q-68 -47 -105.5 -126t-41.5 -171v-20q1 -76 27 -151q30 -85 98 -149q56 -55 126 -81q67 -26 137 -26h5 q72 1 139.5 31.5t122.5 90.5q35 39 61.5 87t40.5 101q8 27 28 38t39 8t31.5 -20.5t6.5 -45.5q-31 -135 -127 -238q-37 -39 -80 -69.5t-90 -53.5q-49 -20 -79 -61t-34 -82q-4 -29 -6 -57.5t-2 -57.5q2 -96 30.5 -139t72.5 -44h2q43 0 94 36q53 36 102 102q53 72 109.5 178.5 t111 233.5t106.5 264t98 269t84 250t65 206q6 18 24.5 25.5t36.5 3t30.5 -18.5t6.5 -37q-23 -90 -59.5 -212t-85 -257t-103.5 -276.5t-113.5 -272.5t-118 -242.5t-114.5 -185.5q-74 -100 -157 -147q-68 -39 -130 -39q-13 0 -25 2q-72 10 -121.5 78.5t-51.5 202.5 q-2 29 0 60.5t6 64.5q2 13 2 25q1 31 -13 55q-20 34 -88 57q-55 16 -107 43.5t-93 66.5q-84 76 -123 176.5t-39 204.5z" />
<glyph unicode="W" horiz-adv-x="1982" d="M2 1022q0 72 16.5 139.5t49 126t79 101.5t105.5 65q74 27 147.5 37t144 17.5t137.5 21.5t126 51q12 8 26.5 16.5t30.5 14.5q20 6 39 1t28 -18.5t7 -31t-20 -33.5q-16 -16 -34 -28.5t-34 -31.5q-8 -10 -19.5 -26.5t-21.5 -37t-19.5 -40t-11.5 -31.5q-37 -166 -72.5 -316.5 t-72.5 -313.5q-6 -20 -25.5 -30.5t-40 -11.5t-36 8t-11.5 25q37 168 71 324t71 323q12 47 -2 59q-9 8 -32 8q-15 0 -36 -3q-43 -6 -86 -8t-85 -7.5t-80 -16.5t-73 -34q-70 -47 -107.5 -125.5t-41.5 -171.5v-20q1 -76 27 -150q30 -84 100 -149q56 -53 126 -81q64 -26 129 -26 h12q71 2 138.5 32t122.5 89q76 80 105 189q6 31 26.5 43t40 10t31.5 -20.5t6 -49.5q-16 -72 -49 -131t-80 -110q-41 -43 -88 -79t-100 -56q-23 -10 -49.5 -30t-43.5 -79q-4 -37 -6 -69.5t-2 -67.5q2 -96 30 -139.5t71 -44.5h2q42 0 94 36q53 37 102 105q57 76 111.5 173 t103.5 206.5t94.5 225.5t83.5 228q29 90 54.5 174t48.5 160q6 20 25.5 26.5t39 1.5t32.5 -19.5t7 -37.5q-16 -63 -38.5 -149t-47.5 -186q-29 -111 -55.5 -229t-47 -227.5t-30.5 -202.5q-6 -58 -6 -104q0 -27 2 -50q11 -116 75 -132q11 -3 23 -2q55 0 123 64q49 47 95.5 132 t87.5 191.5t78.5 225.5t70.5 234.5t63.5 220t57.5 182.5q35 96 80 180t106 141q35 33 78 56.5t92 33.5q31 8 64 7q29 0 59 -5q37 -6 52.5 -26.5t14.5 -41t-16.5 -34.5t-38.5 -8q-26 5 -52 5q-64 0 -124 -32q-72 -39 -122 -124t-87 -189q-31 -84 -62.5 -193.5t-67.5 -229.5 t-74.5 -244t-82.5 -233.5t-94.5 -199.5t-107.5 -143q-66 -61 -132 -80q-34 -10 -65 -10q-30 0 -59 10q-57 18 -97 73.5t-51 143.5q-2 23 -3 36t-1 36q0 59 -34 62h-4q-31 0 -56 -38q-45 -78 -86 -133q-74 -100 -159 -146q-70 -38 -131 -38q-12 0 -26 2q-72 10 -121.5 78.5 t-53.5 201.5q-1 15 -1 29q0 22 2 44q3 36 7 77q4 31 -14.5 58.5t-57.5 39.5q-66 14 -122 47t-103 76q-84 76 -122 176.5t-40 204.5z" />
<glyph unicode="X" horiz-adv-x="1546" d="M-2 256q0 41 13.5 82t39 74.5t64.5 58.5t90 33q27 6 45 -7.5t23.5 -33t-4 -40t-36.5 -26.5q-53 -8 -82.5 -48t-33.5 -89q-2 -27 6 -53.5t26.5 -47t47 -33.5t67.5 -13q53 0 100.5 16t90.5 45q111 72 228.5 213t240.5 313q43 59 53 129q6 44 6 88q0 27 -2 54 q-10 123 -18.5 231.5t-10.5 237.5q0 14 -7 32.5t-22.5 33t-35.5 22.5t-47 4q-76 -10 -141.5 -21.5t-137.5 -42.5q-68 -29 -105.5 -85t-43.5 -115q-1 -13 -1 -25q1 -43 17 -75q22 -40 58 -58q27 -13 60 -13q12 0 26 2q48 7 98 46q18 14 37.5 9t30 -21.5t8 -38t-22.5 -37.5 q-69 -53 -143 -63q-19 -2 -36 -2q-54 0 -102 22q-64 28 -103 92q-36 58 -36 139v17q2 45 17.5 93t44 90t70.5 74.5t95 51.5q72 23 131.5 36t114.5 24t111.5 22.5t122.5 29.5q47 14 79.5 42t73.5 49q25 12 44.5 3.5t29.5 -24.5t9 -36.5t-17 -33.5q-35 -29 -70 -57.5 t-57 -64.5q-20 -33 -26.5 -60.5t-6.5 -64.5q4 -188 18 -373q4 -41 32 -44h4q26 0 51 34q63 92 137.5 193.5t158.5 195.5t178.5 173t198.5 126q27 12 46.5 4t28.5 -26.5t6 -39t-21 -30.5q-106 -53 -195.5 -129t-167.5 -165t-146.5 -186.5t-135.5 -191.5q-88 -127 -180.5 -257 t-186.5 -250t-187.5 -220t-185.5 -164q-57 -41 -118.5 -65.5t-129.5 -24.5t-119 22.5t-86.5 59.5t-53 83t-17.5 95zM1038 537q-1 10 -1 18q-1 37 13 57q16 26 38 33.5t39.5 -0.5t17.5 -27q20 -160 43.5 -267t58.5 -177q25 -55 57.5 -85t66.5 -40q20 -6 39 -6q12 0 26 3 q32 7 57 26q20 18 39.5 16t33 -15.5t14.5 -35t-15 -41.5q-37 -36 -89 -56q-38 -14 -77 -15q-14 0 -28 2q-54 7 -109.5 44t-100.5 113q-41 74 -70.5 187.5t-52.5 265.5z" />
<glyph unicode="Y" horiz-adv-x="1345" d="M6 1223q6 80 42 146.5t89 114.5t119 74.5t133 26.5q53 0 105.5 -16.5t96.5 -53t77.5 -95t50.5 -140.5q11 -52 11 -103q0 -44 -8 -87q-17 -93 -46 -183t-56.5 -179t-29.5 -179v-7q0 -73 38 -102q29 -23 75 -23q18 0 38 3q66 12 127.5 46t113.5 90t91 132t60 170 q10 47 18 96.5t23 96.5q16 61 46.5 83.5t59.5 18.5t46 -31q12 -19 12 -42q0 -11 -3 -23q-10 -53 -34.5 -101.5t-43.5 -99.5q-47 -135 -94 -289.5t-92 -292.5q-7 -19 -7 -35q0 -20 10 -35q20 -26 54 -44q51 -29 99.5 -69t64.5 -77q12 -23 8 -40t-16 -26t-28.5 -8t-30.5 15 q-66 80 -159 127q-82 42 -174 42q-12 0 -24 -1q-47 -2 -99 -19.5t-98 -45t-81 -64.5t-47 -80q-6 -20 -5 -43t8 -40t23.5 -27.5t40.5 -6.5q45 4 85 28.5t74 60.5t60.5 80t44.5 89q8 27 28 35t38 4t30.5 -17.5t6.5 -31.5q-23 -55 -56.5 -112.5t-75.5 -105.5t-93.5 -82 t-110.5 -40q-18 -2 -34 -2q-40 0 -70 13q-43 20 -67 55.5t-27 84.5v15q0 42 14 84q18 55 59 100t95.5 77t115.5 52.5t121 26.5q57 8 83.5 33.5t33.5 44.5q10 29 18 56.5t18 55.5q4 10 -6 18.5t-26 -1.5q-49 -35 -109.5 -61.5t-124.5 -37.5q-24 -4 -47 -4q-80 0 -134 45 q-71 56 -79 172q-1 15 -1 31q0 64 20 135q24 88 55 180.5t53 185.5q15 59 15 115q0 33 -5 64q-16 125 -82.5 183.5t-146.5 58.5q-43 0 -87 -16.5t-81 -49.5t-63.5 -79t-38.5 -105q-5 -28 -5 -56q0 -30 6 -61q11 -57 46 -104q12 -14 23.5 -26.5t27.5 -22.5q16 -12 16 -33 t-12 -35q-14 -16 -33.5 -16t-36.5 10q-49 33 -79 80q-35 51 -50 121q-12 50 -12 96q0 18 2 35z" />
<glyph unicode="Z" horiz-adv-x="1153" d="M-2 283q8 57 36.5 95t69.5 58q42 21 92 22h6q47 0 95 -14q49 -12 85 -21q25 -6 47 -6q9 0 19 1q30 4 59.5 28.5t63.5 79.5l529 873q23 37 23 63q-1 4 -1 8q-4 28 -25.5 49t-54 32.5t-63.5 21.5q-65 17 -137 29q-48 8 -94 8q-22 0 -43 -2q-74 -6 -129.5 -47t-75.5 -140 q-5 -26 -5 -50q0 -41 14 -79q23 -61 91 -84q28 -8 58 -9q6 0 13 1q38 2 77 19q23 8 40 -3.5t24 -32t0 -41t-32 -30.5q-64 -23 -125 -23q-34 0 -67 7q-61 14 -104.5 48t-69 79t-33.5 98q-4 26 -4 52.5t4 53.5q8 55 32.5 106.5t64.5 91.5t93.5 64.5t120.5 26.5h28q68 0 127 -8 q71 -10 136.5 -23.5t132 -25.5t144.5 -12q27 0 48 4t41.5 9t40 11t42.5 12q31 6 50 -11t24 -41.5t-5 -50.5t-39 -34q-63 -20 -116.5 -49t-100.5 -102l-571 -932q-18 -31 -33.5 -61.5t-22 -61.5t1 -61.5t31.5 -61.5q31 -37 81 -84t110.5 -91t126 -80t127.5 -50q27 -6 52 -6 q37 0 70 14q56 24 103 66q23 23 46.5 20.5t38.5 -20t16.5 -41t-21.5 -43.5q-68 -59 -151 -90q-55 -20 -113 -20q-30 0 -62 5q-74 12 -148.5 50t-149.5 92.5t-149.5 120t-144.5 133.5q-23 20 -53.5 45.5t-65 49t-72.5 40t-73 16.5h-8q-43 0 -67 -20q-26 -22 -29 -54 q-2 -14 -3 -27q0 -40 24 -64q29 -29 73 -29h8q49 0 100 34q27 23 53.5 19t41 -20.5t12.5 -41t-29 -43.5q-39 -29 -83 -42t-85 -15q-49 0 -95 16.5t-78 48.5q-32 31 -48 76q-11 30 -11 66q0 17 3 35z" />
<glyph unicode="[" horiz-adv-x="468" d="M59 127q23 184 50.5 359.5t61.5 346.5t76 344t93 355q10 45 55 45q43 0 84 -1t82 -1q29 0 41 -16.5t10 -36t-16 -34.5t-41 -15h-82q-10 0 -28.5 -7.5t-24.5 -25.5q-41 -137 -78 -284.5t-67.5 -300.5t-55 -303.5t-43.5 -293.5q-2 -6 -2 -21.5t5 -31t17.5 -25.5t36.5 -8 q23 0 43.5 -1t42.5 -1q20 0 36 -14.5t16 -34.5q0 -31 -27 -47q-13 -10 -29 -6q-49 0 -98 1t-100 3q-25 0 -43.5 14t-14.5 41z" />
<glyph unicode="\" horiz-adv-x="499" d="M12 1501q-8 20 2.5 35.5t25.5 21t32.5 -4t23.5 -33.5q37 -141 74 -279.5t76 -277.5q16 -61 41.5 -156.5t53.5 -196t54.5 -196t42.5 -156.5q6 -20 -5 -33.5t-27.5 -16.5t-32 4t-21.5 30q-16 63 -42.5 158.5t-54.5 196.5t-54.5 196.5t-42.5 156.5q-37 139 -74 275.5 t-72 275.5z" />
<glyph unicode="]" horiz-adv-x="647" d="M2 132.5q2 19.5 16.5 34.5t40.5 15q20 0 40 -1t40 -1q10 0 29.5 8.5t26.5 26.5q41 135 77.5 283.5t67.5 300t55.5 303t42.5 295.5q2 6 2 21.5t-5 30.5t-17 25.5t-37 8.5h-43.5t-42.5 2q-20 0 -35.5 14t-15.5 35q0 29 24 47q15 6 29 6q51 0 100 -2t99 -4q27 0 44 -13.5 t15 -39.5q-23 -184 -50.5 -359.5t-61 -346.5t-75.5 -344t-94 -355q-14 -45 -57 -45q-41 0 -82 1t-82 1q-29 0 -41 16.5t-10 36z" />
<glyph unicode="^" horiz-adv-x="792" d="M168 770q-12 25 0 47l227 236q25 25 51.5 23.5t45.5 -23.5l182 -234q20 -25 12 -51q-4 -12 -16.5 -19.5t-24.5 -9.5q-23 -4 -39 15l-121 153q-29 31 -49 33t-49 -27l-145 -147q-12 -23 -39 -18q-25 0 -35 22z" />
<glyph unicode="_" horiz-adv-x="956" d="M158 0q0 16 11 30.5t34 14.5h311h141.5t141.5 -2q23 0 35 -12.5t13 -28.5t-11.5 -30.5t-36.5 -16.5h-277h-313q-25 0 -37 14.5t-12 30.5z" />
<glyph unicode="a" horiz-adv-x="706" d="M0 426q0 86 29 176q29 96 80 177t114 116q35 18 70 24.5t63 2.5q25 -4 46.5 -11.5t37.5 -17.5q25 -14 40.5 -8t25.5 12q12 10 29.5 10t31 -8t19.5 -25.5t-4 -44.5q-6 -14 -16.5 -44.5t-25 -70.5t-28.5 -86t-27 -93q-10 -45 -18 -86t-12 -76v-11q0 -75 48 -75h5 q37 2 72.5 37.5t67.5 83t59.5 97.5t46.5 83q6 12 19 12t24.5 -6t16.5 -18.5t-3 -26.5q-23 -41 -52.5 -96.5t-66.5 -107.5t-82 -92t-98 -48q-13 -2 -25 -2q-23 0 -43 7q-30 11 -53 44q-23 35 -41 33t-43 -21q-47 -41 -108 -57q-18 -4 -35 -4q-30 -1 -58 13q-42 22 -69 63 q-37 59 -37 145zM100 446q-1 -16 -1 -30q0 -51 16 -84q12 -25 34.5 -37t57.5 4q51 23 99 90.5t73 153.5q20 66 28 128q3 23 3 42q0 35 -9 61q-12 37 -45 49q-15 6 -31 6q-34 0 -75 -28q-35 -27 -65.5 -84.5t-53.5 -124.5q-25 -74 -31 -146z" />
<glyph unicode="b" horiz-adv-x="647" d="M-3 371q-1 16 -1 33q0 34 4 70q6 54 20.5 110.5t30.5 111.5q16 53 32.5 102.5t29.5 90.5q43 137 79.5 257t65.5 210q8 29 28.5 38t41.5 3q16 -4 27.5 -20.5t6.5 -37.5q-8 -31 -20 -71.5t-27.5 -87.5t-31 -97.5t-29.5 -97.5q-10 -29 -8 -42t9 -16t20.5 0t25.5 7q23 6 47 6 q26 0 54 -7q54 -13 81 -54q31 -44 31 -126v-9q-2 -88 -31 -185q-14 -47 -32.5 -93t-40.5 -89q-4 -10 -11.5 -28.5t4.5 -37.5q14 -20 37 -20q37 2 73 38t67.5 83t59.5 97t46 83q6 12 19.5 12t24.5 -6t16.5 -18.5t-3.5 -26.5q-23 -41 -52 -96.5t-66 -107.5t-82 -92t-99 -48 q-12 -2 -23 -2q-36 0 -69 22q-16 12 -37.5 13.5t-38.5 -9.5q-50 -25 -111 -25q-14 0 -28 1q-35 4 -68.5 22.5t-50.5 49.5q-18 41 -21 90zM102 398q2 -38 13 -62q10 -20 25.5 -28.5t34 -7.5t36.5 8t33 20q18 14 19 23t-5 28q-10 27 -8 49.5t12 38.5t28.5 22t41.5 0 q16 -6 21 4.5t9 20.5q6 16 9.5 24.5t9.5 24.5q29 79 35 147q1 15 1 29q0 46 -16 70q-18 29 -46.5 31t-59.5 -15q-82 -47 -133 -159q-20 -45 -34 -94q-16 -48 -22 -92q-5 -34 -4 -64v-18z" />
<glyph unicode="c" horiz-adv-x="550" d="M35 612q20 59 52 115.5t72 99.5t88 70t99 27h8q37 0 71 -16q38 -18 58 -56q17 -31 17 -68q0 -48 -29 -104q-8 -23 -25.5 -30t-33 -3t-23.5 19.5t4 38.5q10 23 19.5 49t-0.5 51q-8 20 -24.5 26.5t-35.5 4.5q-35 -4 -68.5 -26t-62 -55.5t-52.5 -75.5t-38 -87 q-25 -70 -30 -136q-1 -12 -1 -22q0 -51 19 -86q18 -37 51 -51q26 -11 55 -11q8 0 17 1q57 4 108 35.5t93 77.5t76 97.5t59 94.5q8 12 21 13t24.5 -5t16.5 -19.5t-3 -27.5q-31 -53 -70 -111.5t-87 -108.5t-106.5 -86t-127.5 -42q-12 -1 -25 -1q-47 0 -91 18q-56 22 -91 75 q-34 55 -34 137q0 87 30 178z" />
<glyph unicode="d" horiz-adv-x="702" d="M29 600q29 96 80 176t114 115q20 12 48 19.5t55.5 7.5t54.5 -6.5t47 -22.5q29 -25 45 -14.5t27 38.5q18 59 36.5 122t36 120t33 107.5t25.5 85.5q10 27 30.5 37t40.5 4q16 -6 27.5 -21.5t7.5 -36.5q-27 -96 -64.5 -216t-76.5 -249q-25 -86 -48.5 -168t-43.5 -157 q-12 -47 -22.5 -91t-18.5 -83q-4 -18 -4 -32q0 -21 8 -33q14 -22 41 -17q37 2 72.5 36.5t67.5 83t59.5 98.5t46.5 81q6 12 19 13t25.5 -5t17.5 -19.5t-3 -27.5q-23 -41 -52.5 -96.5t-66.5 -107.5t-82 -91t-98 -47q-12 -2 -24 -2q-26 0 -48 10q-32 14 -53 49q-16 31 -37.5 28 t-44.5 -24q-16 -14 -31.5 -23.5t-31.5 -17.5q-43 -23 -81 -23q-20 0 -39 6q-54 18 -87 70q-36 57 -36 142q0 89 28 182zM101 444q-2 -17 -2 -33q0 -50 18 -83q10 -23 32.5 -36t57.5 3q51 23 103 89.5t77 150.5q21 68 29 130q3 23 3 44q0 34 -9 59q-14 39 -54 53 q-20 8 -46.5 3t-57.5 -27q-35 -25 -66.5 -82.5t-54.5 -126.5q-23 -72 -30 -144z" />
<glyph unicode="e" horiz-adv-x="538" d="M31 610q20 59 52 115.5t72 99.5t88 70t99 27h6q85 0 123 -56q23 -35 23 -78q0 -30 -11 -63q-18 -57 -52 -100t-79 -74t-98 -49.5t-109 -28.5q-10 -2 -29.5 -17.5t-19.5 -37.5q2 -23 5 -39.5t14 -32.5q18 -37 51 -51q26 -11 55 -11q8 0 17 1q57 4 108 35.5t93 77.5 t76 97.5t58 94.5q8 12 21.5 13t25 -5t16.5 -19.5t-3 -27.5q-31 -53 -70 -111.5t-87 -108.5t-106.5 -86t-127.5 -42q-12 -1 -25 -1q-47 0 -91 18q-56 22 -91 75q-34 55 -34 137q0 87 30 178zM135 580.5q6 -19.5 41 -15.5q74 18 140.5 58.5t89.5 119.5q5 16 5 31q-1 17 -7 34 q-10 26 -46 26h-10q-66 -8 -120 -68.5t-89 -140.5q-10 -25 -4 -44.5z" />
<glyph unicode="f" horiz-adv-x="532" d="M-89 -55q-1 14 -1 27q0 25 4 48q16 94 53 244t86 316q31 98 59.5 195t59.5 184.5t63.5 159t69.5 116.5q29 37 68 58.5t77 22.5h4q36 0 66 -22q31 -24 45 -77q9 -34 9 -75q0 -45 -11 -98q-20 -102 -70.5 -200.5t-129 -178t-177.5 -104.5q-29 -10 -35 -37.5t5 -46.5 q16 -35 43.5 -61.5t61.5 -42t72 -16.5h4q36 0 73 18q35 18 58.5 41.5t41.5 52.5t34.5 59.5t35.5 61.5q8 12 21 13t24.5 -5t16.5 -19.5t-3 -27.5q-41 -72 -78 -133.5t-115 -108.5q-63 -34 -125 -34q-21 0 -42 4q-29 4 -42.5 4t-7.5 -47q7 -57 7 -115q0 -29 -2 -57 q-5 -87 -41 -164q-27 -53 -65 -80t-79 -29h-7q-38 0 -66 21q-29 22 -45.5 57t-19.5 76zM7 -73q13 -36 38 -39t51.5 24t36.5 82q13 59 13 118v22q-3 71 -19 140q-14 51 -29 51q-2 0 -4 -1q-16 -7 -28 -54q-16 -59 -29 -119.5t-27 -119.5q-9 -38 -9 -65q0 -23 6 -39z M205 695.5q2 -15.5 17.5 -14.5t53.5 32q51 41 93.5 103.5t70 127t40.5 124.5q7 35 7 63q0 20 -4 36q-6 31 -18 39t-26.5 4t-30 -19.5t-27.5 -29.5q-25 -29 -47.5 -74t-43 -97t-37.5 -109.5t-34 -112.5q-4 -14 -10 -35.5t-4 -37z" />
<glyph unicode="g" horiz-adv-x="665" d="M-94 -192q6 49 41 92q27 33 60.5 62.5t70.5 53t73.5 43t69.5 35.5q35 23 43 34t17 30l8 28q10 31 -4.5 38t-40.5 -5q-10 -6 -22.5 -9t-22.5 -7q-19 -4 -37 -4q-31 0 -58 13q-41 21 -67 62q-37 59 -37 145.5t27 176.5q29 96 81 177t115 114q53 29 115 31h6q58 0 107 -31 q20 -12 34.5 -5t20.5 13q12 10 29.5 10t31 -9t18.5 -27.5t-5 -45.5q-51 -154 -89 -294t-83 -287q-8 -27 -1 -32t19 0t27.5 16.5t23.5 19.5q78 80 128 166t104 182q6 12 20 13t25.5 -5t16.5 -19.5t-3 -27.5q-49 -94 -87 -161.5t-74 -116t-72.5 -83t-82.5 -65.5t-107.5 -62.5 t-143.5 -74.5q-43 -23 -92.5 -59.5t-88.5 -77.5q-20 -23 -26 -47.5t-1 -45t21.5 -33t38.5 -12.5q33 0 62.5 26t54.5 62.5t44 79.5t32 80q8 20 26.5 31.5t35 12.5t27.5 -7t7 -25q-18 -53 -43 -111.5t-58.5 -106.5t-78.5 -81.5t-105 -37.5q-7 -1 -14 -1q-40 0 -72 21 q-37 23 -54 62q-13 28 -13 62q0 12 2 24zM100 440q-1 -15 -1 -30q0 -51 16 -84q12 -25 33.5 -37.5t56.5 4.5q53 23 101 90.5t73 153.5q20 66 28 128q3 21 3 39q0 37 -11 64q-14 37 -43 49q-14 6 -30 6q-33 0 -76 -28q-35 -27 -66.5 -84.5t-54.5 -124.5q-23 -74 -29 -146z " />
<glyph unicode="h" horiz-adv-x="647" d="M-66 258l316 1098q10 25 28.5 32t35 1.5t27.5 -18.5t7 -32l-112 -395q0 -2 -3.5 -14t-4.5 -25.5t3.5 -20.5t20.5 1q29 15 74 29q35 10 65 11q9 0 17 -1q25 -2 51 -12.5t44.5 -32t26.5 -55.5q3 -13 4 -29q0 -25 -8 -56q-12 -47 -28.5 -91t-34 -89t-31.5 -92t-22 -100 q-4 -20 -4 -34q0 -23 11 -33q17 -14 48 -5q33 12 68.5 56t70.5 98q29 43 51.5 83.5t38.5 65.5q6 12 19.5 12t25 -6t16.5 -18.5t-3 -26.5q-23 -39 -49.5 -87t-61.5 -97q-37 -53 -78 -98.5t-88 -63.5q-28 -10 -55 -10h-10q-32 2 -56 20.5t-36 52.5q-8 23 -9 54q0 15 2 32 q8 57 22.5 106.5t31 95.5t33 91t30.5 95q8 31 -7 46t-36 19q-25 4 -61.5 -9t-73.5 -41t-66.5 -67t-42.5 -84l-104 -372q-6 -25 -24.5 -33t-37 -4t-32 17.5t-9.5 35.5z" />
<glyph unicode="i" horiz-adv-x="346" d="M2 410q-2 -22 -3 -42q0 -43 11 -75q16 -47 52 -69q25 -15 55 -14q14 0 30 3q53 8 98.5 47t82.5 91t66.5 107.5t51.5 96.5q8 14 3 27.5t-16 19.5t-24.5 5t-19.5 -13q-18 -33 -46 -83t-60.5 -97t-67.5 -83t-72 -38h-5q-49 0 -48 75v11q2 35 10.5 76t20.5 88q12 45 27.5 93 t28.5 89t24.5 72.5t17.5 46.5q12 33 2 52t-29.5 24.5t-39 -4t-25.5 -33.5q-14 -51 -45 -139.5t-55 -184.5q-17 -79 -25 -149zM180 1100q0 27 17.5 45t44.5 18t45 -18.5t18 -44.5q0 -27 -18.5 -45.5t-44.5 -18.5q-27 0 -44.5 18.5t-17.5 45.5z" />
<glyph unicode="j" horiz-adv-x="319" d="M-430 -173q-2 -13 -2 -25q0 -33 12 -62q17 -39 52 -62q31 -21 71 -21q7 0 14 1q59 4 104.5 38t79 82t58.5 106.5t43 111.5q4 16 -7 24.5t-27.5 7.5t-35 -12.5t-26.5 -31.5q-12 -37 -31.5 -80t-44.5 -80t-54.5 -62.5t-62.5 -25.5q-23 0 -39 12t-21 32.5t1 45t27 47.5 q39 41 89 77t91 60q37 20 71.5 35.5t68.5 33t69.5 38t74.5 53.5q57 47 98.5 95t73 98.5t57 102.5t52.5 107q8 14 3 27.5t-16.5 20t-24.5 5.5t-21 -14q-23 -49 -46.5 -96t-51 -93t-64.5 -90t-86 -87q-30 -20 -44 -20q-11 0 -11 13q0 8 4 21q45 147 82.5 287.5t89.5 294.5 q12 33 1.5 52t-28.5 24.5t-38.5 -4t-27.5 -33.5l-208 -705q-6 -18 -14.5 -30.5t-43.5 -34.5q-66 -33 -141.5 -79t-128.5 -114q-35 -43 -41 -91zM186 1092q0 27 18.5 45t45.5 18t45 -18.5t18 -44.5q0 -27 -18.5 -45.5t-44.5 -18.5q-27 0 -45.5 18.5t-18.5 45.5z" />
<glyph unicode="k" horiz-adv-x="628" d="M-66 258l316 1098q8 25 27.5 32t37 1.5t28.5 -21.5t3 -39q-27 -96 -52.5 -188t-51.5 -189q-4 -12 -5 -37.5t19 -29.5q8 -2 13 1t14 7q43 27 97 33q9 1 18 1q44 0 83 -24q51 -29 61 -86q4 -21 4 -42q0 -36 -11 -73q-16 -51 -45 -83.5t-63 -57t-71 -48.5t-71 -56 q-23 -23 -26 -48.5t8.5 -50t34 -42t52.5 -23.5q9 -2 18 -1q40 0 90 28q62 34 130 141q27 39 46 74.5t36 64.5q6 12 19.5 12t25.5 -6t17 -18.5t-3 -26.5q-16 -31 -35.5 -65.5t-42.5 -71.5q-81 -133 -161 -181q-73 -44 -137 -44h-11q-63 6 -110.5 41.5t-66.5 85.5 q-12 31 -12 64q0 19 4 39q11 54 62 97q27 25 59.5 44.5t62.5 41t55.5 49t37.5 64.5q10 33 4 61.5t-47 34.5q-4 1 -9 1q-22 0 -54 -18q-38 -20 -77.5 -53.5t-72 -74.5t-45.5 -80l-100 -354q-6 -25 -24.5 -34t-37 -5t-32 18.5t-9.5 36.5z" />
<glyph unicode="l" horiz-adv-x="364" d="M1 404q3 44 12.5 87.5t21.5 86.5t24 84l205 700q6 23 24.5 32t37 5t30 -21.5t2.5 -48.5q-49 -166 -99 -335t-97 -337q-10 -29 -23.5 -74.5t-24 -93t-13.5 -91.5q-1 -8 -1 -16q0 -33 11 -54q12 -28 42 -27h11q43 8 80 41t67.5 75t55 88t47.5 83q6 12 19 12t25.5 -6 t17.5 -18.5t-3 -26.5q-27 -47 -52.5 -93t-56 -89t-68.5 -78t-89 -60q-44 -21 -83 -21q-26 0 -48 8q-58 22 -70 101q-6 31 -6 63q0 12 1 24z" />
<glyph unicode="m" horiz-adv-x="1026" d="M-47 260l176 610q8 20 23.5 29.5t31 9.5t28.5 -8t19 -20q6 -16 20.5 -13.5t24.5 9.5q63 41 139 42q4 0 7 -1q29 -4 60.5 -17.5t47.5 -46.5q16 -20 21.5 -21.5t26.5 17.5q41 36 95 54q44 15 84 15q9 0 17 -1q25 -2 50.5 -12.5t45 -32t27.5 -56.5q3 -14 3 -30q0 -24 -7 -54 q-12 -47 -27.5 -90l-31 -86t-28.5 -89t-22 -99q-4 -19 -4 -34q0 -25 12 -35q18 -16 48 -3q33 12 68.5 55t70.5 97q29 45 51.5 85.5t38.5 65.5q6 12 19.5 12t25.5 -6t17.5 -19.5t-3.5 -27.5q-23 -37 -50 -86t-60 -96q-39 -53 -80 -98.5t-88 -63.5q-28 -10 -55 -10h-9 q-32 2 -56 19q-26 18 -38 52q-8 21 -7 50q0 18 3 39q8 57 20.5 105t27 92t29.5 87t30 92q8 31 -7.5 47.5t-35.5 20.5q-10 2 -19 2q-23 -1 -46 -11q-32 -14 -59.5 -39.5t-52 -60t-43.5 -71.5q-37 -86 -68.5 -188.5t-57.5 -196.5q-6 -25 -23.5 -33t-36 -4t-32 17.5t-9.5 35.5 q29 94 57.5 189.5t55.5 187.5q6 27 11 56.5t5 54t-8 41t-27 20.5q-9 2 -19 2q-39 1 -76 -27q-46 -34 -83 -85.5t-62.5 -107.5t-35.5 -95l-72 -252q-6 -25 -23.5 -33t-35 -4t-30.5 17.5t-9 35.5z" />
<glyph unicode="n" horiz-adv-x="698" d="M-20 270l176 611q8 20 23.5 29.5t30.5 9.5t28.5 -8.5t19.5 -20.5q2 -4 11.5 -11.5t27.5 3.5q63 45 139 46q6 0 13 -1q25 -2 50 -12.5t45 -31.5q18 -22 26 -56q3 -13 3 -28q0 -25 -8 -57q-12 -47 -26.5 -90t-29.5 -86t-28.5 -89t-21.5 -99q-4 -20 -4 -34q0 -25 11 -35 q17 -16 48 -3q33 12 68.5 55.5t70.5 96.5q29 45 51.5 86t38.5 65q6 12 19.5 12.5t25 -6t16.5 -19.5t-3 -28q-23 -37 -49.5 -86t-61.5 -96q-37 -53 -78 -98t-88 -64q-28 -10 -55 -10h-9q-32 2 -56 19q-26 18 -38 53q-8 24 -8 56q0 15 2 32q8 57 21.5 105t28 92t30 87t29.5 93 q8 31 -7.5 47t-35.5 20q-9 2 -19 2q-39 1 -75 -27q-45 -34 -82 -85.5t-62.5 -107.5t-35.5 -95l-72 -252q-6 -25 -23.5 -33t-36 -4t-32 17.5t-8.5 35.5z" />
<glyph unicode="o" d="M0 415q-1 17 -1 34q-1 70 19 147q24 96 72 176q50 80 116 128q57 41 122 41q11 0 22 -1q68 -8 106 -51t52 -105q9 -40 9 -86q0 -26 -3 -53q-8 -76 -35 -149q-8 -25 -2 -49.5t29 -24.5q35 0 67 16q37 20 60.5 57t46.5 76q8 10 13 20.5t12 20.5q6 12 19 13.5t24.5 -6 t16.5 -19.5t-3 -27q-8 -18 -19 -34q-29 -55 -61.5 -100.5t-85.5 -71.5q-56 -28 -105 -28q-16 0 -32 3q-27 4 -43.5 -5t-36.5 -28q-43 -51 -95 -81q-45 -26 -96 -25h-14q-84 6 -126 66.5t-48 145.5zM95 446v-5q-1 -60 19 -101q20 -43 70 -43q35 0 67 19.5t58 52.5q10 14 6 24 t-8 21q-16 29 -16 53q2 16 11 33.5t28 21.5q12 4 28 0q23 -2 28 6.5t9 18.5q15 51 21 103q4 32 4 61q0 17 -2 33q-4 42 -21.5 70t-48.5 32q-9 1 -17 1q-40 0 -78 -31q-46 -38 -81 -98.5t-55.5 -134t-21.5 -137.5z" />
<glyph unicode="p" horiz-adv-x="661" d="M-158 -119q8 29 30 103.5t45.5 158.5t45 160t29.5 107q23 76 46 153.5t41.5 142t32 110.5t17.5 63q4 16 15.5 25t25.5 11.5t27.5 -2t21.5 -16.5q14 -14 27.5 -17t38.5 9q47 23 91 23h14q50 -5 88 -32.5t56 -76.5q13 -32 13 -70q0 -21 -4 -43q-10 -63 -37 -105t-60.5 -73 t-67.5 -54.5t-56 -47.5q-20 -23 -24.5 -46.5t4.5 -43t30.5 -28.5t52.5 -3q98 20 165.5 93t115.5 155q10 18 20 36.5t23 36.5q6 12 19 13.5t25.5 -6t17.5 -19.5t-3 -27q-10 -18 -19.5 -35.5t-19.5 -33.5q-29 -53 -64.5 -103.5t-78.5 -91.5t-96.5 -69.5t-114.5 -34.5h-16 q-55 0 -92 25q-42 28 -57 71q-8 24 -8 50q0 20 5 42q12 49 55 86q25 20 55.5 41t58 46.5t49 58t28.5 79.5q2 14 2 27q0 21 -7 37q-10 25 -32 35q-25 12 -56.5 6t-54.5 -21q-43 -25 -77.5 -72.5t-61.5 -104t-46.5 -114t-31.5 -100.5q-39 -133 -75.5 -265t-75.5 -267 q-10 -27 -28 -36t-35 -5t-27.5 20.5t-4.5 38.5z" />
<glyph unicode="q" horiz-adv-x="679" d="M-2 424q0 86 27 174q16 53 43.5 111.5t67.5 105.5t92 77q50 28 110 28h8q45 -4 86 -25q27 -14 37 -16t33 14q12 8 29.5 8t29.5 -9t17.5 -26.5t-5.5 -42.5q-16 -49 -34.5 -106.5t-36 -116.5t-32.5 -118.5t-28 -114.5q-2 -12 -3 -23.5t4.5 -20t17.5 -9.5t37 8 q43 12 75.5 43.5t60.5 71.5t49.5 84t43.5 81q8 12 21.5 12t24.5 -6t16.5 -18t-3.5 -27q-25 -45 -50 -92t-55 -90t-68 -79t-89 -56q-29 -12 -41 -20.5t-15 -19.5t1 -27.5t10 -41.5q20 -78 29 -155q2 -20 2 -38q0 -52 -18 -91q-14 -31 -40 -51.5t-67 -24.5q-6 -1 -11 -1 q-35 0 -69 22q-39 26 -49 83q-4 22 -4 46q0 16 2 33q4 42 13 86t23.5 88t26.5 85q10 29 -5 34t-42 -11q-16 -10 -34.5 -19.5t-40.5 -13.5q-19 -4 -36 -4q-30 0 -57 13q-41 20 -67 61q-37 59 -37 145zM97 444q-2 -16 -2 -31q0 -50 18 -83q10 -25 31.5 -36t56.5 3 q53 23 100 90.5t72 151.5q20 66 28 128q3 23 3 42q0 35 -9 61q-12 35 -45 47q-20 10 -45.5 5t-58.5 -27q-35 -25 -65.5 -82.5t-53.5 -124.5q-23 -72 -30 -144zM342 -104q10 -39 31.5 -37t38.5 37q16 33 16 71q0 15 -2 31q-10 55 -20 104q-8 29 -17.5 32t-19.5 -36 q-16 -51 -27 -106q-5 -28 -5 -53q0 -23 5 -43z" />
<glyph unicode="r" horiz-adv-x="569" d="M17.5 512q-5.5 14 5.5 35q27 45 54 102.5t50 114.5q10 25 9 28t-11 19q-10 20 -10 47t7 54.5t19.5 51t26.5 37.5q21 21 43 21q9 0 19 -4q34 -12 38 -39q0 -16 -6 -40t-12 -46q-2 -8 -3 -21.5t19 -21.5q29 -10 71 -31.5t66 -40.5q27 -18 37.5 -36.5t9.5 -41t-11.5 -50 t-24.5 -66.5q-14 -37 -30.5 -73t-30 -68.5t-22.5 -61.5t-12 -49q0 -33 29 -43q5 -1 10 -1q24 0 55 30q38 36 75.5 88.5t68.5 103.5t43 72q8 16 12 22q6 12 19.5 13t26 -5t17.5 -19t-3 -28q-4 -4 -8 -12q-23 -41 -59 -104.5t-82 -121t-99 -95.5q-42 -31 -86 -31q-11 0 -23 2 q-45 8 -70.5 36.5t-27.5 67.5q0 31 11.5 69t26.5 78t32.5 79.5t31.5 74.5q6 14 11.5 28.5t6.5 28t-5 27t-27 25.5q-14 10 -29.5 17t-31.5 14q-10 4 -27.5 -0.5t-28.5 -26.5q-47 -113 -106 -217q-8 -12 -22.5 -15.5t-25.5 3t-16.5 20.5z" />
<glyph unicode="s" horiz-adv-x="501" d="M-1 323.5q5 16.5 17.5 23.5t27.5 6t30 -15q34 -43 78 -43h7q48 4 81 45q26 35 30 76l2 28q0 28 -5 58q-7 45 -20.5 90t-21.5 90q-2 16 -18.5 16t-24.5 -14l-96 -174q-10 -18 -24.5 -21.5t-25.5 3t-17.5 20t1.5 27.5l234 436q8 16 25.5 20t34 -3t25.5 -24.5t3 -41.5 q-10 -39 -15 -72t-8 -66q-1 -15 -1 -29q0 -38 8 -74q10 -50 21 -100q11 -51 17 -99q2 -14 1 -28q0 -34 -9 -69q-4 -10 3.5 -20.5t23.5 2.5q41 39 71.5 84t59.5 94q10 16 18.5 31.5t16.5 27.5q6 12 19.5 12.5t24.5 -6t16 -18.5t-3 -27l-24 -49q-25 -45 -56.5 -91t-69.5 -86 t-82 -72.5t-93 -51.5q-37 -14 -80 -17q-12 -1 -23 -1q-31 0 -60 6q-40 8 -71 28.5t-45 53.5q-8 18 -3 34.5z" />
<glyph unicode="t" horiz-adv-x="346" d="M4 377q2 68 19.5 138.5t35.5 135.5q14 47 32 105.5t36 124.5q8 25 14 49t15 49q4 18 -4.5 21.5t-24.5 5.5l-57 2q-29 2 -41.5 16t-12.5 31.5t13.5 32t38.5 14.5h90q27 0 32 6t9 18q25 84 43 144.5t22 79.5q6 25 26.5 33t39 2.5t29 -25t-2.5 -51.5q-4 -10 -18 -59.5 t-37 -123.5q-4 -10 -2 -19t18 -9h68q25 0 36 -16.5t9 -35t-16.5 -33t-44.5 -12.5l-74 3q-16 0 -26.5 -6.5t-14.5 -26.5l-31 -105q-18 -59 -34.5 -115.5t-30.5 -103.5q-18 -68 -37 -136.5t-23 -139.5q0 -35 6 -54q10 -31 48 -26q41 4 79.5 45t73.5 98q29 41 50.5 83t37.5 71 q8 12 21.5 12t25 -6t16.5 -19.5t-3 -27.5q-16 -29 -37 -69t-47 -81q-41 -68 -95 -125t-120 -67q-13 -2 -26 -2q-33 -1 -60 15q-37 22 -54 67q-11 30 -11 69q0 11 1 23z" />
<glyph unicode="u" horiz-adv-x="598" d="M1 424q9 80 32.5 165t50.5 163.5t43 130.5q6 25 26.5 33t39 2.5t28.5 -25t-2 -51.5q-18 -53 -38.5 -112.5t-39 -121t-32 -122t-15.5 -115.5q-1 -11 -1 -20q-1 -29 9 -43q12 -18 41 -17q18 0 39 16.5t41.5 41t35.5 53t26 53.5l143 424q8 27 25.5 35t34 3.5t26.5 -17.5 t6 -30q-12 -39 -37.5 -110.5t-50 -147t-44 -144.5t-19.5 -101q0 -23 5 -39.5t15 -24.5q20 -12 53 6q41 27 75 77t56 87q23 35 39.5 66.5t30.5 54.5q6 12 19.5 13t25.5 -6t17.5 -19.5t-3.5 -26.5q-16 -27 -32.5 -57.5t-36.5 -65.5q-29 -47 -60.5 -92t-68.5 -78 q-16 -14 -33.5 -25.5t-34.5 -19.5q-27 -11 -50 -11q-27 0 -48 15q-10 8 -15.5 14.5t-13.5 18.5q-16 27 -38.5 14.5t-45.5 -26.5q-18 -12 -36.5 -20.5t-41.5 -12.5q-14 -2 -26 -2q-33 1 -59 15q-36 20 -52 67q-12 37 -12 84q0 24 3 51z" />
<glyph unicode="v" horiz-adv-x="620" d="M-1 390q5 46 11 85q10 55 25.5 112.5t32 112t32 100.5t25.5 77q10 27 28.5 35t34 2.5t25.5 -19.5t4 -33q-10 -25 -24.5 -69.5t-30 -99t-30.5 -113t-23 -109.5q-4 -16 -8.5 -44t-3.5 -56.5t10.5 -51t31.5 -28.5q7 -1 15 -1q24 0 51 14q35 20 65 48q33 31 67 72t62.5 87 t51 95t34.5 96q8 39 9 82q0 27 -10.5 42.5t-24.5 19.5q-31 8 -49.5 -19.5t-26.5 -69.5q-5 -28 -5 -58q0 -15 1 -30q4 -46 20 -73q8 -16 4 -31.5t-15 -26t-26.5 -10.5t-25.5 19q-25 51 -32 119q-2 21 -2 42q0 44 10 86q16 60 54 98q31 31 81 31q11 0 22 -1q37 -6 64.5 -33 t35.5 -74q4 -27 2 -56.5t-8 -60.5q-14 -49 -31.5 -92t-39.5 -84q-4 -4 -6.5 -14t-2.5 -19.5t6.5 -15.5t22.5 -6q27 0 51.5 15.5t44 38t34.5 48t26 45.5q6 12 19 13.5t24.5 -5t16.5 -19.5t-3 -28q-18 -41 -42 -76.5t-56.5 -61t-72.5 -37.5q-22 -7 -48 -7q-20 0 -43 4 q-31 4 -45.5 -6t-24.5 -24q-12 -16 -25.5 -30.5t-27.5 -31.5q-46 -47 -102 -77q-46 -25 -97 -26q-10 0 -20 1q-55 4 -82 32.5t-36 68.5q-6 26 -6 54q0 16 2 32z" />
<glyph unicode="w" horiz-adv-x="878" d="M4 423q10 81 32.5 166t50.5 163.5t44 130.5q6 25 26.5 33t39 2.5t29 -25t-2.5 -51.5q-18 -53 -38.5 -112.5t-39 -121t-32 -122t-15.5 -115.5q-1 -9 0 -17q0 -66 42 -65h5q27 2 53.5 23.5t49 50t38 61.5t19.5 57q10 55 25.5 112.5t32 111t32 100.5t25.5 78q10 27 28.5 34 t34 1.5t25.5 -19.5t4 -33q-10 -25 -24.5 -69.5t-30 -98t-30.5 -113t-24 -110.5q-4 -16 -8 -44t-3 -55.5t10.5 -50t31.5 -28.5q27 -6 59.5 14.5t65.5 58.5t64.5 87t57.5 96t43 88t24 66q4 20 7 40.5t1 40.5q0 27 -10.5 41.5t-24.5 18.5q-31 8 -49.5 -18.5t-26.5 -67.5 q-6 -30 -6 -62q0 -12 1 -24q3 -45 19 -72q8 -16 5.5 -32.5t-14 -26.5t-26 -11.5t-26.5 15.5q-29 45 -36 113q-2 21 -2 41q0 45 10 87q16 62 56 102q33 33 84 33q10 0 21 -1q37 -4 64.5 -31t38.5 -74q3 -16 3 -34q0 -38 -12 -83q-12 -51 -29.5 -94t-39.5 -82q-4 -4 -6 -14 t-2 -19.5t6 -15.5t22 -6q35 0 68 27q29 25 51.5 58.5t34.5 61.5q6 12 19.5 13.5t25.5 -6t17 -19.5t-3 -26q-23 -47 -52.5 -89t-70.5 -67q-28 -16 -60 -24q-16 -4 -35 -5q-18 0 -38 4q-33 4 -46 -6t-23 -26q-25 -31 -52.5 -62t-57.5 -54.5t-64 -35.5q-26 -9 -55 -9 q-9 0 -19 1q-23 4 -36 7t-30 17q-31 29 -50 32t-37.5 -7t-43 -25.5t-67.5 -21.5q-14 -2 -26 -2q-33 1 -59 15q-36 20 -53 67q-13 35 -13 83q0 24 3 51z" />
<glyph unicode="x" horiz-adv-x="733" d="M4 522.5q-6 12.5 0 24.5q14 27 33.5 64.5t43 78.5t50.5 83t57 75q29 30 60 50q27 17 54 17h9q57 0 88 -29.5t43 -76.5q4 -20 4 -43t4.5 -34t15.5 -4t38 46q23 31 43 61.5t37 61.5q12 16 28.5 19.5t28.5 -5t15 -25t-13 -38.5q-39 -66 -84 -131.5t-90 -124.5 q-10 -10 -15 -22.5t-5 -34.5q-3 -53 -3 -99v-6q0 -42 8 -74q8 -34 24 -52.5t46 -16.5q37 2 74 40t70.5 88t62.5 102t47 85q8 12 21.5 12t25 -6t16.5 -18t-3 -27q-20 -35 -46 -83t-56.5 -97t-66.5 -91t-77 -65t-82 -23q-18 0 -36 4q-60 14 -89 81q-10 25 -15 54.5t-10 62.5 q-4 35 -16 32.5t-31 -20.5q-53 -59 -102 -111.5t-96 -89.5q-18 -16 -35 -15t-26 12t-9 26.5t14 27.5q53 45 122 118t147 165q20 25 25 38t7 50q1 25 1 46v21q-1 30 -5 56q-4 23 -14 43t-37 24q-16 2 -33.5 -10t-35.5 -33q-29 -31 -56.5 -73.5t-50.5 -82.5t-38 -70t-17 -32 q-10 -20 -24.5 -24t-27 1t-18.5 17.5z" />
<glyph unicode="y" horiz-adv-x="630" d="M-144 -179q7 48 42 91q53 66 127.5 114t140.5 80q27 12 40 26.5t23 39.5l21 70q-16 -10 -40 -22.5t-58 -16.5q-14 -2 -27 -2q-32 0 -59 15q-37 20 -54 65q-12 37 -12 84q0 24 3 51q9 80 32.5 166t51.5 164.5t44 130.5q6 25 25.5 33t38 2.5t30 -25t-1.5 -51.5 q-18 -53 -39.5 -112.5t-40 -121t-32 -122t-15.5 -115.5v-6q0 -76 47 -76h2q33 2 63 27.5t54.5 61.5t42 74.5t25.5 67.5l108 363q6 25 25.5 34t39 3.5t30 -25t-2.5 -51.5q-53 -152 -90 -291t-82 -287q-3 -13 -3 -21q0 -15 11 -15q8 0 21 7q43 25 83 71t77 101.5t67.5 110.5 t55.5 96q6 12 19 13.5t25.5 -5t17.5 -19.5t-3 -28q-51 -100 -92 -168.5t-78 -117.5t-75 -82t-85 -62.5t-107.5 -60.5t-141.5 -74q-41 -23 -91.5 -59.5t-87.5 -77.5q-23 -23 -28.5 -47.5t0.5 -45t21.5 -32.5t37.5 -12q33 0 62.5 25.5t54 62.5t44 80t32.5 80q8 20 26.5 31.5 t35.5 12.5t28.5 -7.5t5.5 -24.5q-18 -53 -42 -111.5t-56.5 -107.5t-77.5 -83t-107 -38q-7 -1 -14 -1q-40 0 -72 21q-37 23 -54 62q-13 28 -13 62q0 12 1 25z" />
<glyph unicode="z" d="M-51 -217q-3 19 -3 37q0 52 26 95q34 58 92.5 105.5t125 86t119.5 75.5q-16 70 -86 92q-5 1 -12 1q-33 0 -96 -35q-16 -10 -31.5 -5t-25 18t-10.5 29.5t13 26.5q35 23 58.5 36t58.5 36q47 31 107.5 81t99.5 109q18 29 35.5 70t20.5 79v11q0 31 -14 57q-17 30 -65 37 q-10 2 -21 2q-37 1 -70 -23q-42 -30 -77.5 -76t-64.5 -99.5t-51 -91.5q-8 -16 -21.5 -19.5t-26 1.5t-19.5 16.5t-3 21.5q27 57 64 125t82 124t100 90q45 28 96 28q12 0 25 -2q76 -12 113.5 -54.5t43.5 -99.5q2 -15 2 -30q0 -42 -14 -90q-18 -64 -53 -118q-20 -29 -44 -60.5 t-48 -55.5q-38 -38 -38 -60t25 -51q10 -14 17.5 -28.5t13.5 -26.5q41 33 86 77t87 93t77 99t57 93q6 12 20.5 13.5t26 -5t17.5 -19.5t-2 -28q-25 -53 -71 -116.5t-103.5 -127t-123 -119.5t-128.5 -97q-39 -29 -94.5 -62t-104.5 -73q-49 -38 -81 -84q-25 -36 -25 -75 q0 -10 2 -20q6 -49 63 -49q33 0 73 31t75 77t59.5 99t30.5 98q4 20 21.5 35.5t34 21t28.5 -2t8 -31.5q-12 -66 -42 -136.5t-73 -129t-97 -98.5t-114 -44h-14q-58 0 -90 30q-36 34 -47 85z" />
<glyph unicode="{" horiz-adv-x="495" d="M39 862q-8 29 14 49q25 18 47.5 40t40.5 48q49 72 72 154q16 49 24.5 99.5t14.5 101.5q6 59 33.5 116.5t81.5 85.5q39 20 83 24.5t85 0.5q20 -2 30 -18.5t10 -35t-10 -32.5t-33 -14q-29 4 -65.5 2t-60.5 -19q-23 -16 -37.5 -47t-18.5 -59q-8 -51 -15 -101.5t-20 -99.5 q-12 -53 -31.5 -104.5t-52.5 -98.5q-10 -16 -23.5 -32.5t-27.5 -32.5q37 -18 65.5 -45t41.5 -68q6 -29 5 -55.5t-5 -52.5q-6 -31 -15.5 -60.5t-19.5 -58.5q-12 -35 -26.5 -67.5t-28.5 -67.5q-10 -29 -19.5 -55.5t-13.5 -55.5q-8 -41 6 -78t59 -47q6 -2 17.5 -2h26t25.5 1 t17 3q20 4 35 -9t17 -31.5t-9.5 -36t-40.5 -23.5q-23 -4 -59.5 -3t-56.5 7q-76 20 -111 80.5t-27 134.5q4 37 14.5 74t24.5 71q12 29 24.5 57.5t23.5 57.5q10 27 19 53.5t17 53.5q4 20 6.5 40.5t-4.5 41.5q-12 35 -45.5 52t-68.5 27q-27 6 -35 35z" />
<glyph unicode="}" horiz-adv-x="696" d="M90 122.5q0 18.5 11.5 33t33.5 14.5q29 -4 66 -1t61 19q23 16 37 47t18 58q8 53 18.5 111.5t26 117t37 113.5t52.5 102q12 16 24.5 33t28.5 33q-37 18 -65.5 46t-41.5 69q-16 53 0.5 113.5t34.5 111.5q10 31 20.5 54.5t19.5 47t17.5 48t14.5 55.5q8 41 -6.5 77.5 t-59.5 49.5q-6 0 -17 1t-25.5 0t-26 -2t-17.5 -4q-23 -4 -36 10.5t-15 33t9.5 36t39.5 23.5q23 4 59.5 2t57.5 -6q76 -20 110.5 -81t26.5 -136q-6 -66 -26.5 -112t-42.5 -107q-6 -18 -15.5 -43t-16.5 -51.5t-10.5 -51t3.5 -43.5q12 -35 45.5 -52.5t66.5 -27.5 q29 -6 37 -34.5t-14 -49.5q-51 -37 -88 -88q-29 -37 -49.5 -87t-36 -103t-25.5 -106.5t-16 -98.5q-6 -59 -34 -115.5t-81 -85.5q-39 -23 -83 -25.5t-85 1.5q-20 2 -31.5 17t-11.5 33.5z" />
<glyph unicode="~" horiz-adv-x="956" d="M260 567q18 45 54 71t79 36q55 10 97 -5.5t77 -36t65 -34.5t62 0q27 12 58 51q12 18 28.5 19.5t30.5 -6t20.5 -22.5t-2.5 -30q-37 -70 -106 -92q-57 -20 -99 -8t-76 32.5t-65.5 38t-68.5 9.5q-23 -4 -39.5 -19.5t-30.5 -38.5q-10 -16 -27.5 -19t-32 3t-22.5 19.5t-2 31.5 z" />
<glyph unicode="&#xa2;" horiz-adv-x="694" d="M92 522.5q-31 102.5 17 245.5q35 100 97 184t142 115q47 23 53 53q4 10 5.5 19.5t5.5 23.5q6 27 21.5 35t29.5 4t22.5 -19.5t1.5 -37.5q-2 -10 -3 -15.5t-3 -13.5q-4 -16 5.5 -30.5t23.5 -24.5q55 -33 68.5 -99.5t-21.5 -136.5q-10 -23 -27.5 -30t-33 -2.5t-23.5 18.5 t4 37q10 23 16.5 48.5t2.5 47.5q-4 14 -12.5 19.5t-17.5 1.5t-17.5 -14.5t-10.5 -24.5q-6 -29 -12 -54.5t-20 -83.5q-16 -72 -33 -142.5t-35 -145.5q-2 -10 -4 -24.5t1 -26t13 -17.5t31 0q71 17 141 80q18 10 32.5 2t18.5 -25.5t-7 -40t-44 -40.5q-90 -66 -184 -70 q-20 0 -29.5 -11.5t-13.5 -25.5q-4 -8 -4 -12t-2 -13q-4 -23 -18.5 -30.5t-30 -4.5t-24.5 16t-5 34q4 10 5 15t3 16q4 20 -2 32.5t-16 18.5q-76 47 -107 149.5zM177 600.5q3 -63.5 28 -104.5q12 -18 21.5 -23.5t16.5 -0.5t11 14.5t6 17.5q16 74 33.5 148.5t34.5 146.5 q10 41 16 69.5t12 51.5q8 33 -4 33.5t-30 -15.5q-37 -35 -68 -85t-49 -103q-31 -86 -28 -149.5z" />
<glyph unicode="&#xa3;" horiz-adv-x="1282" d="M96 354q4 37 24.5 64.5t48.5 48t61.5 34t64.5 19.5q14 2 26.5 4t26.5 4q27 4 51.5 12.5t38.5 53.5q16 51 29.5 106.5t28.5 108.5q8 37 -3.5 41t-39.5 6l-78 2q-23 0 -35 13.5t-13 30t8 30.5t32 16h92q29 4 52.5 26.5t27.5 47.5q10 43 17 80t24 98q29 102 67.5 193.5 t91.5 136.5q29 25 64 35q41 14 81 12t73.5 -19.5t58 -46t37.5 -67.5q25 -84 1 -160t-63 -147q-8 -16 -25.5 -23.5t-33.5 -1.5q-23 8 -31 29.5t6 40.5q27 51 48.5 107.5t9.5 115.5q-12 55 -62.5 72.5t-99.5 -19.5q-37 -29 -67.5 -98.5t-53.5 -151.5q-18 -59 -28.5 -106 t-18.5 -86q-2 -10 -4 -21.5t0 -22.5t12 -19.5t33 -8.5l94 -4q23 -4 32 -20.5t6 -32t-17.5 -26.5t-34.5 -7l-113 4q-31 2 -40 -16.5t-13 -38.5q-10 -49 -21.5 -98.5t-25.5 -96.5q-10 -47 -8 -74.5t49 -52.5q47 -27 90 -63.5t85 -66t86 -45t91 -1.5q33 10 58.5 31.5t43.5 48.5 q12 18 33 20.5t36 -8t19 -32t-18 -50.5q-31 -37 -67.5 -63.5t-84.5 -38.5q-78 -23 -133 -4.5t-102 53.5t-92 76t-101 68q-29 12 -47.5 3t-34.5 -36q-14 -25 -30.5 -46.5t-34.5 -43.5q-25 -23 -53.5 -42.5t-60 -27.5t-63.5 -4t-63 27q-29 20 -40 53t-5 65zM192 327 q3 -24 33 -24q20 0 39 11.5t33 23.5q23 20 43 47q31 43 15.5 45t-52.5 -6q-29 -8 -54.5 -20.5t-43.5 -34.5q-16 -18 -13 -42z" />
<glyph unicode="&#xa4;" horiz-adv-x="874" d="M66 422.5q0 19.5 20 36.5q16 14 34.5 26.5t35.5 26.5q10 8 9 14t-5 19q-27 57 -17.5 120.5t41.5 116.5q8 10 7 16.5t-11 16.5q-14 16 -19 21.5t-24 25.5q-18 16 -16 36t15.5 32t32.5 13t38 -17q12 -14 19 -21.5t20 -19.5q10 -10 17 -8t18 10q4 4 20 12q70 41 143.5 34 t120.5 -56q8 -6 21 -23q8 -10 12 -13t16 7l74 53q18 16 39 12t33 -17t11 -33.5t-23 -35.5q-29 -23 -57.5 -42t-57.5 -40q-12 -10 -12 -30q-6 -68 -37 -125q-4 -6 -7.5 -15.5t7.5 -19.5l51 -53q14 -14 15 -32.5t-9 -33t-28.5 -18.5t-39.5 12q-14 14 -25 26.5t-26 26.5 q-10 8 -16.5 6t-16.5 -6q-61 -47 -123.5 -54t-111.5 17q-18 8 -35 -4l-18 -15t-12.5 -9t-15.5 -11.5t-28 -21.5q-18 -16 -37.5 -13t-30.5 17t-11 33.5zM238.5 627.5q9.5 -58.5 48.5 -86.5q37 -27 89 -16.5t105 75.5q16 20 28.5 47t16.5 54.5t-3 54t-29 49.5q-20 18 -48 26.5 t-59 2t-60.5 -25.5t-52.5 -54q-45 -68 -35.5 -126.5z" />
<glyph unicode="&#xa5;" horiz-adv-x="808" d="M26 551q-1 16 9 30.5t33 14.5q53 0 85.5 -1t57.5 -1q10 2 24.5 3t20.5 34q4 23 5 40t-34 17q-23 -2 -51.5 -1t-64.5 1q-25 0 -36.5 13.5t-12.5 30t9.5 29.5t32.5 13h132h19t20.5 5t14.5 17.5t5 37.5q0 14 -14 55l-234 620q-6 20 4 35t27.5 20t34 -1.5t22.5 -26.5 l168 -446q14 -37 26.5 -63t29 -32t39 14.5t57.5 77.5l282 447q12 20 30.5 23.5t34 -6t21.5 -27t-4 -35.5l-393 -606q-12 -18 -18.5 -29.5t-10.5 -22.5q-10 -25 -9 -38t8 -17t17.5 -4h18.5h107q27 0 39 -14.5t12 -30.5t-12.5 -29.5t-34.5 -11.5q-47 0 -80 -1t-55 -1 q-20 0 -33 -8t-19 -39q-8 -37 8.5 -40t38.5 -5h99q27 0 39 -14.5t12 -31t-12.5 -29.5t-34.5 -11h-117q-29 0 -47 -10.5t-25 -49.5l-41 -204q-4 -25 -21 -34t-34.5 -7t-30 15t-8.5 34l39 199q8 39 -12.5 49t-40.5 10h-94q-25 0 -36 13.5t-12 29.5z" />
<glyph unicode="&#xa6;" horiz-adv-x="567" d="M90 256q18 68 29.5 110t19.5 70.5t14.5 52t14.5 52t19.5 70.5t27.5 110q6 27 23.5 35t33 3t25.5 -21t2 -36q-18 -68 -28.5 -109.5t-17.5 -70t-13.5 -52.5t-14.5 -52.5t-19 -70.5t-30 -107q-6 -23 -21.5 -31t-32 -5t-27.5 17.5t-5 34.5zM303 1053q18 68 29.5 109.5 t19.5 70.5t14.5 52.5t13.5 52t18.5 70.5t29.5 110q6 27 23.5 35t33 3.5t25.5 -19.5t2 -38q-18 -68 -28.5 -108.5t-18.5 -69.5t-14.5 -52.5t-13.5 -52t-18 -70.5t-30 -110q-6 -23 -21.5 -30t-32 -3.5t-27.5 16.5t-5 34z" />
<glyph unicode="&#xa7;" horiz-adv-x="727" d="M2 297q0 49 19.5 96t54.5 82q20 18 40.5 16t34 -14t15.5 -31.5t-12 -35.5q-49 -55 -45 -121q2 -59 41.5 -95t95.5 -40q41 -4 75.5 13t59.5 46t38 66.5t13 76.5q-2 35 -18.5 62.5t-38.5 50.5q-29 27 -60.5 54.5t-62.5 57t-56.5 61.5t-39.5 69t-14.5 78.5t12 79.5t37 71 t59.5 51t40 29.5t-5 50.5q-10 33 -9.5 65.5t13.5 73.5q27 84 96.5 134.5t157.5 50.5q47 0 90 -16.5t74.5 -48.5t48 -79t10.5 -104q-4 -35 -19.5 -66.5t-50.5 -54.5q-16 -12 -33.5 -6t-27.5 19.5t-9 32t19 30.5q33 20 33 57q4 61 -37 101t-98 43q-49 2 -91 -29t-61 -78 q-23 -57 -4 -100t55.5 -79t80.5 -69t69 -71q20 -29 28.5 -61t6.5 -64q-2 -47 -24.5 -97.5t-59.5 -87.5q-20 -25 -30.5 -33t-12.5 -17t4 -23.5t18 -51.5q18 -53 13 -106q-6 -63 -33 -118.5t-70 -93.5t-99.5 -57.5t-123.5 -9.5q-90 12 -149.5 80t-57.5 160zM242 789.5 q4 -41.5 27.5 -82.5t58.5 -66q35 -23 61.5 -34t67.5 18q63 43 71.5 98t-17.5 101t-74 74t-97 17q-57 -14 -79.5 -49t-18.5 -76.5z" />
<glyph unicode="&#xa8;" horiz-adv-x="591" d="M197 981q4 27 22 42t45 11q25 -2 40 -21.5t13 -43.5q-4 -25 -23.5 -41.5t-43.5 -12.5q-25 4 -40 22.5t-13 43.5zM350 981q4 27 22.5 42t43.5 11q27 -2 42 -21.5t13 -43.5q-4 -25 -23.5 -41.5t-44.5 -12.5t-41 22.5t-12 43.5z" />
<glyph unicode="&#xa9;" horiz-adv-x="1314" d="M254 723q-10 100 21.5 191.5t93 160t147.5 110.5t189 42q98 2 184 -35t149.5 -101.5t98 -151.5t32.5 -185q-4 -92 -39.5 -173t-97 -140.5t-142.5 -94.5t-173 -37q-90 0 -170 31t-142.5 86t-102.5 131t-48 166zM328 723q8 -74 41.5 -135.5t85 -107.5t117 -70.5 t139.5 -24.5q76 0 143.5 27.5t119.5 77t84 115t36 140.5q6 84 -23 159t-82 130.5t-127 87t-155 31.5q-86 0 -160 -36t-125 -95t-77.5 -136t-16.5 -163zM592 655v117v109q0 20 4 42.5t16 39.5q14 20 38 30.5t50 7.5q31 0 57.5 -12t43.5 -37q10 -14 13 -29.5t3 -31.5v-35 q0 -14 -10 -22.5t-22.5 -9.5t-22.5 7.5t-10 24.5v33q-2 23 -16.5 33t-30.5 12t-31 -8.5t-15 -30.5q-2 -31 -2 -61.5v-61.5v-57.5t2 -57.5q0 -23 8.5 -40t37.5 -15q16 2 30.5 12.5t16.5 32.5v33q0 18 10 25.5t22.5 6.5t22.5 -9.5t10 -22.5v-33q0 -39 -16 -63q-14 -23 -41 -35 t-55 -14q-29 -2 -53.5 8t-41.5 30q-10 16 -14 39t-4 43z" />
<glyph unicode="&#xab;" horiz-adv-x="888" d="M148.5 624.5q-1.5 24.5 23.5 49.5l223 207q23 12 45 0q18 -10 23 -33q0 -25 -19 -37l-143 -135q-29 -27 -27 -45t31 -45l141 -117q18 -14 15 -37q-2 -12 -9.5 -22.5t-17.5 -14.5q-25 -10 -49 11l-217 178q-18 16 -19.5 40.5zM431.5 624.5q-1.5 24.5 23.5 49.5l223 207 q23 12 45 0q18 -10 22 -33q0 -25 -18 -37l-143 -135q-29 -27 -27 -45t31 -45l141 -117q18 -14 14 -37q-2 -12 -9 -22.5t-17 -14.5q-25 -10 -49 11l-217 178q-18 16 -19.5 40.5z" />
<glyph unicode="&#xad;" horiz-adv-x="770" d="M59 653.5q0 16.5 11.5 30.5t33.5 14h299h59.5t42 1t42 1h59.5q23 0 36 -13t13 -29.5t-11 -30t-38 -15.5l-209 -2h-288q-25 0 -37.5 13.5t-12.5 30z" />
<glyph unicode="&#xae;" horiz-adv-x="1251" d="M188 729q-10 100 22 191.5t93.5 160t147.5 110.5t188 42q98 2 184 -35t149.5 -101.5t98.5 -151.5t33 -185q-4 -92 -40 -173t-97.5 -140.5t-142.5 -94.5t-173 -37q-90 0 -170 31t-142.5 86t-102 131t-48.5 166zM262 729q8 -74 42 -135.5t85 -107.5t116.5 -70.5 t139.5 -24.5q76 0 143.5 27.5t120 77t84 115t35.5 141.5q6 84 -22.5 158.5t-82 130t-127 87t-155.5 31.5q-86 0 -159.5 -36t-125 -95t-78 -136t-16.5 -163zM547 580q0 -16 10 -25.5t21.5 -9.5t21.5 8t10 25v100q0 27 21.5 31t32.5 -19l59 -125q6 -16 18.5 -19t23.5 2 t16 17.5t-1 26.5l-41 92q-12 23 -7 38t13 28q18 29 26.5 53t8.5 61q-2 53 -26.5 96.5t-69.5 43.5h-96q-14 2 -27.5 -10.5t-13.5 -30.5v-189v-194zM610 817v92q4 35 33 31h19q29 0 42 -22.5t15 -51.5t-11.5 -54.5t-37.5 -25.5h-27q-14 -2 -23.5 8.5t-9.5 22.5z" />
<glyph unicode="&#xb0;" horiz-adv-x="636" d="M117 1358q-6 78 31.5 149.5t109.5 108.5q41 23 86 24.5t82 -20.5q37 -23 58.5 -55.5t29.5 -70.5t4 -78t-16 -77q-12 -35 -35 -65.5t-50.5 -53t-62 -34.5t-71.5 -8q-78 6 -119 59t-47 121zM205 1360q6 -35 26.5 -63.5t59.5 -34.5q35 -4 71.5 19.5t63.5 82.5q18 45 13 97 t-54 79q-37 20 -88 2q-51 -20 -75.5 -75.5t-16.5 -106.5z" />
<glyph unicode="&#xb1;" horiz-adv-x="886" d="M0 127q0 16 11.5 30.5t33.5 14.5h211h289q23 0 35 -13.5t13 -29.5t-11.5 -30.5t-36.5 -16.5h-293h-203q-25 0 -37 14.5t-12 30.5zM84 661.5q0 16.5 11 31t34 14.5h197q29 0 50 17t30 40q18 57 35.5 107.5t35.5 107.5q8 23 24.5 31t32 4t24.5 -19.5t1 -38.5l-67 -208 q-4 -14 3 -27.5t23 -13.5h197q23 0 36 -13.5t13 -30t-11.5 -29.5t-37.5 -16q-53 -2 -106.5 -2h-106.5q-23 0 -42.5 -11t-29.5 -44q-20 -66 -40.5 -128t-43.5 -128q-6 -27 -29 -33q-18 -10 -41 2q-10 10 -16 23q-4 18 2 35l80 237q4 16 -4 31.5t-29 15.5l-176 2 q-25 0 -37 13.5t-12 30z" />
<glyph unicode="&#xb6;" horiz-adv-x="921" d="M138 1273q9 77 45 142.5t96.5 108.5t140.5 43q39 0 63.5 -1t47 -1h48h62.5h213q18 0 26.5 -13.5t8.5 -30t-9.5 -30.5t-23.5 -14h-25.5h-12.5h-12.5h-25.5l-286 -1393q-2 -27 -18.5 -37t-34 -7t-30 17.5t-5.5 38.5l284 1381h-125q-33 -158 -69.5 -336t-73.5 -361.5 t-74 -361.5t-67 -336q-4 -25 -19.5 -35t-33 -7t-29 17.5t-4.5 38.5q18 94 41.5 209t48 234.5t48 234.5t44.5 211q-92 -2 -147.5 40t-78 106.5t-13.5 141.5z" />
<glyph unicode="&#xb7;" horiz-adv-x="344" d="M100 618q4 25 22.5 40.5t43.5 13.5q25 -4 41 -22.5t12 -45.5q-4 -25 -22.5 -40t-42.5 -13q-25 4 -41.5 23.5t-12.5 43.5z" />
<glyph unicode="&#xb8;" horiz-adv-x="436" d="M84 125q6 16 29 20q14 0 26 -14q12 -16 27 -18q23 -4 37 8q20 18 18 43q0 10 -3 20.5t-5 20.5q-2 29 6 59q9 29 23 64q6 14 20 20q10 2 23 0q12 -4 19 -15t3 -26q-6 -16 -13 -31.5t-11 -31.5q-4 -10 -4 -18.5v-18.5q2 -14 5 -26.5t3 -26.5q2 -29 -15.5 -54.5t-42.5 -40.5 q-35 -18 -77 -12q-39 10 -64 41q-14 16 -4 37z" />
<glyph unicode="&#xbb;" horiz-adv-x="854" d="M145 846q4 23 23 33q23 12 45 0l223 -207q25 -25 24 -49.5t-20 -40.5l-217 -179q-25 -20 -49 -10q-10 4 -17 14.5t-10 22.5q-6 18 13 37l143 117q29 27 30 45t-28 45l-141 135q-18 12 -19 37zM397 846q4 23 23 33q23 12 45 0l223 -207q25 -25 24 -49.5t-20 -40.5 l-217 -179q-25 -20 -49 -10q-10 4 -17.5 14.5t-9.5 22.5q-6 18 13 37l143 117q29 27 30 45t-28 45l-141 135q-18 12 -19 37z" />
<glyph unicode="&#xbc;" horiz-adv-x="1314" d="M59 659l162 668q4 14 -7 21.5t-28 -2.5q-16 -12 -17 -13.5t-24 -15.5q-12 -8 -23 -4t-17.5 14t-4.5 23.5t15 21.5q45 31 73.5 53.5t69.5 61.5q23 18 50.5 5t17.5 -42l-197 -805q-4 -14 -15.5 -19t-24.5 -3t-22.5 11t-7.5 25zM274 258q16 61 42 156.5t53.5 196t54.5 195.5 t43 157q39 139 76 277t73 280q6 25 23.5 34t33 3.5t25.5 -21t2 -35.5q-35 -139 -71.5 -275t-75.5 -276q-16 -61 -42 -156.5t-53.5 -196.5t-54 -196.5t-45.5 -158.5q-4 -23 -20 -30t-31.5 -4t-27 16.5t-5.5 33.5zM611 637q-1 14 3 29.5t15 25.5q8 10 15 17.5t13 17.5 q31 37 62 77t57 79q16 25 40 63.5t28 67.5q4 23 -5.5 44t-19.5 42q-4 10 1 20t15.5 15.5t21.5 4.5t20 -12q20 -27 29 -57.5t3 -64.5q-6 -35 -32.5 -81t-47.5 -75q-23 -35 -48 -70t-52 -69q-8 -10 -10 -27.5t20 -17.5l191 2q60 0 74 57q12 41 24 84t27 84q14 41 27.5 82 t29.5 82q6 16 18.5 21t23.5 2t17.5 -12t2.5 -24q-29 -90 -58 -178t-53 -178q-27 -102 -45.5 -204.5t-22.5 -207.5q-2 -14 -13 -21t-23.5 -6t-21.5 8t-9 24q4 70 10 138t23 136q8 45 -37 45l-275 2q-18 0 -27.5 10.5t-10.5 24.5z" />
<glyph unicode="&#xbd;" horiz-adv-x="1302" d="M45 657l160 668q4 14 -7.5 21.5t-27.5 -3.5q-8 -6 -11 -9t-6 -5l-7.5 -5t-16.5 -9q-12 -8 -23.5 -4t-17.5 14t-4 23.5t16 21.5q23 14 40.5 27.5t32.5 26t31.5 27.5t37.5 34q10 8 24.5 9t25.5 -5t17 -16.5t2 -24.5l-196 -805q-4 -14 -16.5 -19.5t-25 -3t-21.5 11.5t-7 25z M258 256q16 61 43 156.5t54.5 196t53 195.5t42.5 157q39 139 75.5 277t73.5 280q6 25 23.5 34t33 3.5t25.5 -21t2 -35.5q-35 -139 -72 -275.5t-73 -275.5q-16 -61 -43 -156.5t-54.5 -196.5t-54.5 -196.5t-43 -158.5q-6 -23 -21.5 -30t-32 -4t-27.5 16.5t-5 33.5zM567 332 q8 55 41 101t72 83q41 41 83 80t85 78q31 27 64.5 57.5t64.5 66.5t56.5 73.5t37.5 76.5q10 29 8 57.5t-22 51.5q-29 35 -73 42t-85 -5q-43 -14 -69.5 -48t-43.5 -75q-6 -18 -19 -22.5t-25.5 0.5t-18.5 16.5t0 27.5q23 53 60.5 98.5t95.5 65.5q59 20 125.5 5t107.5 -68 q49 -66 27 -150q-12 -47 -39 -91t-61.5 -85t-73.5 -78t-74 -67q-41 -35 -79 -72t-77 -74l-21.5 -21.5t-13.5 -27.5q-4 -23 21 -20q63 14 127 0q23 -4 44 -12.5t44 -16.5q16 -8 38.5 -15.5t39.5 -3.5q23 8 39 27t30 39q10 14 23.5 17t24 -3t14.5 -19.5t-4 -27.5 q-18 -33 -43 -59.5t-62 -36.5q-33 -10 -64.5 -4t-60.5 18q-20 10 -39.5 19.5t-42.5 13.5q-35 6 -67.5 3t-65.5 -13q-20 -4 -38.5 -13.5t-34.5 -19.5q-23 -16 -41.5 -4t-14.5 35z" />
<glyph unicode="&#xbe;" horiz-adv-x="1579" d="M47 852q2 12 12.5 18.5t22.5 5t21.5 -8.5t9.5 -19q-4 -33 5 -64.5t32 -56.5q20 -25 48.5 -38t61.5 -9q74 6 125 63q45 45 61 113q6 23 10.5 52.5t2.5 59t-13.5 55.5t-31.5 42q-23 14 -44.5 11t-43.5 -9q-16 -4 -26.5 4t-13.5 19.5t2 23.5t17 19q41 14 79 34.5t71 49.5 q27 23 47 61q12 23 18 51.5t-2 54.5q-8 31 -35 52q-37 27 -86 22.5t-88 -22.5q-33 -14 -61.5 -39t-44.5 -58q-4 -12 -17.5 -17t-25.5 -1q-16 6 -19.5 20.5t2.5 28.5q23 41 58 73t75 50q57 29 126 33t122 -39q47 -39 60 -94q10 -43 -1.5 -86t-33.5 -80q-10 -16 -21.5 -29.5 t-25.5 -28.5q-8 -10 -16.5 -21t-10.5 -26q-4 -16 4 -27.5t17 -25.5q27 -53 28.5 -115.5t-14.5 -119.5q-25 -82 -80 -140q-31 -33 -71 -54.5t-89 -27.5q-49 -4 -95 14.5t-79 55.5q-31 35 -44 79t-5 91zM520 258q16 61 42 156.5t53.5 196t54 195.5t43.5 157q37 139 74.5 277 t74.5 280q6 25 22.5 34t33 3.5t26.5 -21t2 -35.5q-37 -139 -73.5 -275t-73.5 -276q-16 -61 -43 -156.5t-54.5 -196.5t-54 -196.5t-43.5 -158.5q-4 -23 -20.5 -30t-31.5 -4t-26.5 16.5t-5.5 33.5zM857 637q-1 14 3 29.5t14 25.5q8 10 14.5 17.5t14.5 17.5q31 37 60.5 77 t58.5 79q16 25 39.5 63.5t28.5 67.5q2 23 -6.5 44t-18.5 42q-6 10 0 20t16.5 15.5t21.5 4.5t19 -12q18 -27 28.5 -57.5t4.5 -64.5q-4 -16 -13 -38t-20.5 -43.5t-25 -41t-21.5 -33.5q-25 -35 -49.5 -70t-50.5 -69q-10 -10 -12 -27.5t20 -17.5l193 2q55 0 73 57q12 41 24.5 84 t26.5 84t27.5 82t30.5 82q6 16 18.5 21t23.5 2t17 -12t2 -24q-29 -90 -57.5 -178t-52.5 -178q-29 -102 -47.5 -204.5t-20.5 -207.5q-2 -14 -13 -21t-23.5 -6t-23 8t-10.5 24q4 70 11.5 138t23.5 136q8 45 -39 45l-272 2q-18 0 -27.5 10.5t-10.5 24.5z" />
<glyph unicode="&#xbf;" horiz-adv-x="825" d="M6 461q-6 70 14.5 133t59.5 118.5t89 104.5t101 92q51 47 88 89t65 87t47 97.5t38 122.5q4 18 20.5 26t31.5 5t24.5 -18t3.5 -42q-23 -78 -47.5 -138.5t-56 -111.5t-73.5 -97t-100 -98q-41 -37 -82 -75.5t-72.5 -82.5t-51 -94.5t-15.5 -107.5q10 -90 74.5 -135t144.5 -49 q49 -2 95.5 13t86 44t69.5 69t46 87q6 18 8 41.5t-1 46t-13 41t-31 28.5q-18 10 -43 7q-16 -4 -26.5 7t-10.5 27.5t12.5 30.5t43.5 16q37 2 71 -14q33 -18 53.5 -50t28 -67.5t5 -74.5t-14.5 -72q-23 -61 -60.5 -111.5t-89 -85t-111.5 -53t-124 -16.5q-53 2 -104.5 20.5 t-92 50t-67.5 79.5t-33 110zM516 1497q2 27 19.5 43t44.5 16q25 -2 42 -19t15 -44q0 -25 -18.5 -42t-43.5 -15q-27 0 -43 18.5t-16 42.5z" />
<glyph unicode="&#xc0;" horiz-adv-x="1703" d="M-2 281q0 25 15.5 39t35 16t36.5 -9.5t21 -41.5q-4 -49 16.5 -90t55.5 -67t81 -37t93 -3q47 6 100.5 39t103.5 77t95 91t76 84q63 72 115.5 140.5t105.5 148.5q16 14 34.5 11t31 -17.5t15.5 -36t-11 -41.5q-61 -92 -117.5 -165t-132.5 -155q-33 -37 -75 -79t-89 -80.5 t-96 -68.5t-96 -42q-86 -23 -161 -10.5t-132.5 50.5t-89 101.5t-31.5 145.5zM438 702q6 63 33 115.5t69 87.5t97 53.5t117 16.5q127 -2 227 -82q80 -51 135 43q35 59 70 119.5t69 120.5q37 68 74 134t76 132q18 33 44 60.5t60 43.5q23 12 47.5 15.5t47.5 -7.5q33 -14 47 -53 q10 -27 9 -54.5t-5 -53.5l-99 -441l-213 -932q-16 -35 -57 -30q-27 4 -43 22q-12 17 -10 35q8 37 17.5 73t13.5 71.5t1 71.5t-20 73q-29 59 -67 125q-33 57 -77 129t-98.5 134t-118 104t-134.5 44q-39 0 -75 -13t-64.5 -37.5t-46 -59.5t-19.5 -76q-4 -27 -21.5 -38t-38 -8 t-36 19.5t-11.5 42.5zM1162 714.5q1 -24.5 9 -38.5q12 -18 24.5 -36.5t23.5 -37.5l59 -100v-2q16 -25 37.5 -23t34.5 55l106 437l94 395q12 47 11.5 63.5t-11 13.5t-27 -21.5t-32.5 -43.5q-41 -61 -79 -127.5t-75 -132.5q-35 -61 -69.5 -122.5t-69.5 -121.5 q-12 -20 -20.5 -48.5t-12.5 -56.5t-3 -52.5zM1416.5 2092q2.5 22 17 34t36 9t41.5 -32l234 -311q14 -20 10 -38.5t-18.5 -29t-32.5 -8.5t-35 23l-239 311q-16 20 -13.5 42z" />
<glyph unicode="&#xc1;" horiz-adv-x="1703" d="M4 299q0 -82 33 -145.5t89 -102.5t132 -50t160 9q47 12 96 42t96 69t90 82t76 78q74 82 130.5 155.5t117.5 165.5q14 20 11 42t-15 35t-30 17t-34 -10q-53 -80 -105 -148.5t-116 -140.5q-33 -37 -78 -84t-95 -91t-103 -76.5t-101 -39.5q-47 -8 -93 3.5t-80.5 37t-55 66.5 t-16.5 90q-4 31 -20.5 42t-37 9t-36 -17t-15.5 -38zM446 721q-4 -29 11.5 -44t36 -18.5t38 8t19.5 38.5q2 41 20.5 75.5t47 59t64.5 38t73 13.5q72 -2 135 -44t117.5 -104.5t99.5 -134t78 -129.5q16 -31 32.5 -61.5t32.5 -63.5q16 -37 20.5 -72.5t0.5 -71.5t-13.5 -71.5 t-17.5 -72.5q-4 -20 8 -35q8 -10 20.5 -15.5t24.5 -7.5q41 -4 58 31l211 932l100 440q4 27 4 54.5t-10 54.5q-14 39 -45 53q-23 10 -48.5 6t-47.5 -14q-33 -16 -58.5 -45t-46.5 -60q-37 -66 -74 -133t-75 -133q-35 -59 -69 -119.5t-69 -120.5q-31 -49 -63.5 -59t-73.5 16 q-100 80 -227 82q-61 2 -116.5 -16.5t-97.5 -53t-67.5 -87t-32.5 -115.5zM1169.5 733q-2.5 25 2 52.5t12.5 56t20 49.5l142 244q37 66 74.5 132t78.5 128q16 25 31.5 43t26 21t12.5 -13t-10 -64l-97 -395l-104 -436q-12 -53 -35 -55t-39 22l-57 103q-10 18 -22.5 36.5 t-24.5 36.5q-8 14 -10.5 39zM1614 1767.5q-4 18.5 10 38.5l231 312q20 29 43 31.5t37.5 -9.5t17.5 -33.5t-16 -42.5l-237 -311q-16 -20 -34.5 -22t-33 8t-18.5 28.5z" />
<glyph unicode="&#xc2;" horiz-adv-x="1693" d="M2 283q0 -82 33 -145.5t89 -101.5t132 -50.5t160 10.5q47 10 96 41t96 69.5t90 80.5t76 79q74 82 130.5 155t117.5 165q14 20 11 41.5t-15 35t-30 17.5t-34 -10q-53 -80 -105 -148.5t-116 -140.5q-33 -37 -78 -84t-95 -91t-103.5 -77t-100.5 -39q-47 -8 -93 3t-81 37 t-55.5 67t-15.5 90q-4 31 -20.5 42t-37 9t-36 -17.5t-15.5 -37.5zM444 705q-4 -27 11.5 -43.5t36 -19.5t38 8.5t19.5 37.5q2 41 20.5 76t47 59.5t64.5 37.5t73 13q72 -2 135 -44t117.5 -104t99.5 -134t78 -129q16 -31 32.5 -61.5t32.5 -63.5q16 -37 20.5 -73t0.5 -71.5 t-13.5 -71.5t-17.5 -73q-4 -20 8 -35q8 -10 20.5 -15t24.5 -7q41 -4 58 31l211 931l100 441q4 27 4 54.5t-10 53.5q-14 39 -45 53q-23 10 -48.5 7.5t-48.5 -15.5q-33 -16 -58 -43.5t-46 -60.5q-37 -66 -74 -133.5t-75 -132.5q-35 -59 -69 -120t-69 -120q-31 -49 -63.5 -59.5 t-73.5 16.5q-100 80 -227 82q-61 2 -116.5 -16.5t-97.5 -53.5t-67.5 -87t-32.5 -115zM1167.5 716.5q-2.5 24.5 2 52.5t12.5 56.5t20 48.5l141 244q37 66 75 132.5t79 127.5q16 25 31.5 43.5t26 21.5t12.5 -13.5t-11 -63.5l-96 -395l-104 -436q-12 -53 -35 -55.5t-39 22.5 l-57 102l-47 74q-8 14 -10.5 38.5zM1378 1780q-4 14 1 27.5t16 23.5l288 262q10 8 22.5 16.5t27.5 6.5q14 0 23 -10.5t16 -22.5l129 -256q12 -23 -5 -47q-14 -20 -36 -21q-25 0 -39 25q-29 51 -54.5 102.5t-52.5 104.5l-262 -234q-16 -16 -41 -10q-27 6 -33 33z" />
<glyph unicode="&#xc3;" horiz-adv-x="1699" d="M-6 289q0 -84 31.5 -146.5t89 -101.5t132.5 -50t161 9q47 12 96 42t96 69t89 80.5t75 78.5q76 82 132 155t116 165q14 20 11 41.5t-15.5 36t-30 18.5t-33.5 -10q-53 -80 -105.5 -149.5t-115.5 -141.5q-31 -37 -76 -84t-96 -91t-103.5 -76t-101.5 -38q-47 -10 -92 1.5 t-81 37t-55.5 66.5t-15.5 90q-4 31 -21.5 42t-36.5 9t-34.5 -16.5t-15.5 -36.5zM434 711q-4 -29 11.5 -45.5t36 -19.5t38 8.5t19.5 37.5q2 41 20.5 76t47 60.5t64.5 39t74 11.5q72 -2 135.5 -44t118 -104.5t98.5 -134.5t77 -129q18 -31 34.5 -61.5t32.5 -63.5 q16 -37 19.5 -73t-1 -71.5t-13.5 -71.5t-17 -73q-2 -18 10 -35q16 -18 43 -22q18 -2 33.5 6t23.5 27l211 929l101 441q4 27 4 54.5t-10 53.5q-14 39 -46 54q-23 10 -47 7t-47 -14q-35 -16 -60.5 -44.5t-43.5 -61.5q-39 -66 -76 -132.5t-74 -133.5q-35 -59 -69.5 -120 t-69.5 -120q-55 -94 -135 -43q-98 78 -229 84q-61 2 -115.5 -16.5t-96.5 -54t-69 -87t-33 -114.5zM1157 720.5q-2 24.5 2 52.5t12.5 56.5t20.5 49.5q37 59 71.5 120.5t69.5 122.5q37 66 75 133.5t79 126.5q16 25 32.5 43.5t26.5 21.5t11.5 -13.5t-11.5 -63.5l-94 -395 l-106 -436q-12 -53 -34 -54.5t-38 21.5l-2 2q-14 25 -27.5 50.5t-30.5 49.5q-10 18 -22 37t-25 37q-8 14 -10 38.5zM1378 1849q18 49 53 79t80 40q82 20 160 -37q41 -29 74 -47t67 -2q25 10 58 60q10 16 27.5 18t31 -6t20.5 -23.5t-1 -32.5q-37 -80 -109 -108 q-37 -14 -66.5 -12t-56 13t-52 30t-52.5 37q-41 27 -80 16q-45 -12 -70 -66q-8 -18 -25.5 -21t-32.5 4t-23.5 22.5t-2.5 35.5z" />
<glyph unicode="&#xc4;" horiz-adv-x="1699" d="M-6 289q0 -82 31.5 -145.5t89 -102.5t132.5 -50t161 9q47 12 96 42t96 69t89 80.5t75 78.5q76 82 132 156t118 166q14 20 11 41.5t-15.5 35t-31 17.5t-34.5 -10q-53 -80 -105.5 -148.5t-115.5 -140.5q-31 -37 -76 -84t-96 -91t-103.5 -77t-101.5 -39q-47 -10 -92 1.5 t-81 38t-55.5 66.5t-15.5 91q-4 31 -21.5 42t-36.5 9t-34.5 -17.5t-15.5 -37.5zM434 711q-4 -29 11.5 -44.5t36 -18.5t38 8.5t19.5 37.5q2 41 20.5 76t47 59.5t64.5 38t74 13.5q72 -2 135.5 -44t118 -104.5t98.5 -134.5t77 -129q18 -31 34.5 -62.5t32.5 -62.5 q16 -37 19.5 -72.5t-1 -71.5t-13.5 -72t-17 -73q-2 -18 10 -35q14 -18 43 -22q41 -4 57 31l213 932l99 438q4 29 5 56.5t-9 53.5q-8 16 -19.5 30.5t-28.5 23.5q-23 10 -47 6t-47 -15q-35 -16 -60.5 -44.5t-43.5 -59.5q-39 -66 -76 -133.5t-74 -132.5q-35 -59 -69.5 -119.5 t-69.5 -120.5q-57 -96 -135 -43q-100 80 -227 82q-61 2 -116.5 -16.5t-97.5 -53t-69 -87t-33 -115.5zM1158 723q-1 25 2 52.5t11.5 55t20.5 50.5q37 59 71.5 120.5t69.5 122.5q37 66 75 132.5t79 127.5q16 25 32.5 43.5t26.5 21.5t11.5 -14.5t-11.5 -62.5l-94 -397 l-106 -434q-12 -53 -34 -55.5t-38 20.5q0 2 -2 2q-12 27 -26.5 51.5t-31.5 48.5q-10 20 -22 39t-25 37q-8 14 -9 39zM1453 1839q-5 37 30 76q31 35 69.5 37t61.5 -25q23 -29 14.5 -65.5t-33.5 -59.5q-29 -29 -59.5 -32t-52.5 14q-25 18 -30 55zM1658 1837q-5 37 30 78 q31 35 68.5 36t60.5 -24q25 -29 15.5 -65.5t-32.5 -59.5q-31 -29 -60.5 -32t-51.5 12q-25 18 -30 55z" />
<glyph unicode="&#xc5;" horiz-adv-x="1697" d="M4 281q0 -82 33 -145.5t90 -101.5t132 -50.5t161 10.5q47 10 96 41t96 68.5t89 80.5t75 78q76 82 132.5 156t115.5 166q14 20 11 41.5t-15 35t-30 17.5t-34 -10q-53 -80 -105 -148.5t-116 -140.5q-31 -37 -76 -84t-96 -91t-104 -77t-101 -39q-47 -8 -93 3t-80.5 37 t-55 67t-16.5 90q-4 31 -20.5 42t-36 9t-36 -17.5t-16.5 -37.5zM446 702q-4 -29 11.5 -44t36 -18t38 8t19.5 38q2 41 20.5 76t47 59.5t64.5 37.5t73 13q72 -2 136 -44t118.5 -104t98.5 -134t77 -129l67 -125q16 -37 19.5 -73t-0.5 -71.5t-13.5 -71.5t-17.5 -73q-4 -20 8 -35 q16 -18 45 -22q41 -4 58 30l211 932l100 441q4 27 4 54.5t-10 53.5q-14 39 -45 53q-23 10 -47.5 6t-46.5 -14q-35 -16 -60.5 -43.5t-46.5 -60.5l-147 -266l-140 -240q-55 -94 -135 -43q-53 41 -107.5 60.5t-121.5 21.5q-61 2 -115.5 -16.5t-96.5 -53.5t-68.5 -87t-33.5 -116 zM1169.5 714.5q-2.5 24.5 2 52.5t12.5 56.5t20 48.5q37 59 72 121t70 123q37 66 74.5 132.5t78.5 127.5q16 25 31.5 43.5t26 21.5t12.5 -13.5t-10 -63.5l-97 -395l-104 -437q-12 -53 -33.5 -55t-38.5 23h-2l-57 102q-10 18 -22.5 36.5t-24.5 37.5q-8 14 -10.5 38.5z M1526 1865q-2 36 12 76.5t49 81.5q31 35 69 53.5t74.5 20.5t69.5 -10t55 -39q25 -29 32 -63.5t0 -70.5t-24 -67.5t-42 -56.5q-63 -61 -126 -67.5t-108 26.5q-27 18 -43 49t-18 67zM1599.5 1877q4.5 -46 32.5 -69q27 -20 67 -15t81 52q29 29 40 73t-22 79q-29 31 -79 27.5 t-87 -54.5q-37 -47 -32.5 -93z" />
<glyph unicode="&#xc7;" horiz-adv-x="1128" d="M-4 1425q0 23 14.5 40.5t38.5 15.5q16 -2 29.5 -11.5t15.5 -25.5v-10q-10 -115 56 -211q37 -55 91 -91t116.5 -52.5t129 -16.5t127.5 12q135 29 258 111q72 47 123.5 109.5t71.5 134.5q14 49 -1 94t-73 57q-74 16 -149.5 -29t-145 -117.5t-125 -153.5t-86.5 -136 q-14 -33 -38.5 -40t-45 2t-31 30.5t4.5 46.5q29 51 69.5 114.5t92 127t111 122t123 98.5t130 56t133.5 -4q86 -27 120 -101.5t18 -158.5q-20 -100 -86 -187.5t-160 -150.5q-47 -33 -102.5 -60.5t-114 -48t-119 -32t-117.5 -9.5q-88 -10 -119 -92q-25 -57 -48 -125.5 t-35.5 -139.5t-8.5 -141.5t33 -132.5q41 -88 112.5 -120.5t149.5 -20.5q74 12 136.5 63.5t100.5 120t46 142.5t-25 129q-16 31 -7 55.5t29.5 35.5t46.5 5t42 -39q35 -90 22.5 -189.5t-61.5 -187.5t-129 -153.5t-178 -85.5q-16 -4 -34 -15.5t-18 -44.5q0 -23 4.5 -46t2.5 -46 q-2 -47 -33 -87t-74 -58q-63 -31 -133 -13q-61 20 -98 76q-23 29 -2 62q16 31 49 30q27 0 43 -26q8 -12 16 -21.5t25 -13.5q37 -8 65 10q31 23 35 68q0 16 -3 33.5t-5 33.5q-4 37 -14.5 49.5t-34.5 24.5q-59 23 -108.5 70t-80.5 121q-29 70 -35 147.5t4.5 156.5t32 154.5 t47.5 143.5q20 53 2 94t-63 76q-94 66 -136 162t-40 210z" />
<glyph unicode="&#xc8;" horiz-adv-x="1087" d="M-4 418q0 66 15.5 131t46 126.5t74.5 116t99 97.5q74 57 162.5 87.5t188.5 22.5q-6 23 -22.5 36.5t-39.5 17.5q-94 10 -179 53t-142 121q-35 53 -55.5 115.5t-20.5 140.5q0 27 16.5 40t35 13t33.5 -11.5t13 -33.5q-10 -113 53 -199q53 -74 130 -109.5t163 -41.5t173 13.5 t163 55.5q27 14 58.5 35t58.5 45.5t45 54t20 64.5q0 29 -8 51.5t-28 38.5q-31 25 -65 29t-69.5 -8.5t-70.5 -37t-66 -57.5q-41 -45 -69.5 -98t-34.5 -102q-4 -25 -21.5 -36t-38 -10t-36 14t-15.5 38q10 68 45 134.5t88 121.5q47 51 104.5 88t116 51t113.5 2t100 -59 q27 -29 43.5 -68t12.5 -84q-4 -53 -26.5 -98t-57.5 -83t-80 -66.5t-90 -49.5q-31 -14 -66 -25.5t-71 -21.5q-16 -6 -31.5 -9t-32.5 -7q-39 -14 -29 -53q4 -8 7.5 -16.5t7.5 -16.5q45 -18 71.5 -41t38 -44.5t10.5 -41t-14 -33.5q-12 -16 -33.5 -23.5t-48 -2t-55.5 27 t-55 61.5q-98 29 -188.5 1.5t-161.5 -93.5q-78 -72 -122 -170t-40 -200q2 -80 28.5 -138.5t67.5 -97.5t94 -56.5t111 -15.5q68 4 136.5 33t127.5 86q45 47 68.5 104.5t19.5 116.5q0 39 16.5 57.5t37 18.5t38 -16.5t17.5 -46.5q4 -98 -37 -183.5t-113 -146.5 q-68 -63 -147.5 -96t-157.5 -37q-82 -4 -159 20.5t-136 78.5t-96 135t-39 190zM724 2151q3 22 17.5 34.5t36 9t41.5 -31.5l234 -312q14 -18 10 -36.5t-18.5 -28.5t-33 -9t-34.5 23l-240 309q-16 20 -13 42z" />
<glyph unicode="&#xc9;" horiz-adv-x="1103" d="M10 418q2 -109 38 -190t95.5 -135t136 -78.5t158.5 -20.5q80 4 159 36.5t148 94.5q70 63 111 148t37 184q0 31 -17.5 47t-38 16t-37 -18.5t-16.5 -57.5q4 -59 -19.5 -116.5t-68.5 -104.5q-57 -57 -126.5 -85.5t-137.5 -33.5q-57 -2 -110.5 15.5t-94.5 56.5t-67.5 97.5 t-28.5 138.5q-4 102 40 200.5t122 169.5q72 66 162 93.5t188 -1.5q27 -41 55.5 -62t55 -26.5t48 2t34.5 23.5q12 14 13 33.5t-10.5 41t-38 44t-71.5 41.5q-4 8 -7 15t-7 18q-10 39 30 51q14 6 30 9t32 7q37 12 71.5 23.5t67.5 25.5q45 18 89 48t79 67t57.5 83t26.5 99 q4 45 -12.5 84t-42.5 68q-45 47 -100.5 59t-114 -2t-115.5 -51t-104 -88q-53 -55 -88 -122t-46 -134q0 -25 16.5 -38t36 -14t37 10t21.5 36q6 49 36 102t71 98q31 33 64.5 57.5t69.5 37t69.5 8.5t64.5 -29q41 -35 37 -90q-2 -35 -20.5 -64.5t-45 -55t-58.5 -45t-59 -34.5 q-76 -37 -162.5 -56t-172.5 -13t-163 42t-130 109q-63 86 -54 199q2 23 -13 34t-33.5 11t-35 -13.5t-16.5 -39.5q0 -78 20.5 -141.5t57.5 -114.5q55 -78 140 -121t179 -55q48 -5 62 -52q-100 8 -188.5 -22.5t-161.5 -87.5q-55 -43 -98.5 -97.5t-74 -116t-47 -127 t-14.5 -130.5zM1049 1818.5q-4 18.5 10 36.5l231 312q20 29 43 32t37 -9.5t17.5 -34t-15.5 -41.5l-237 -310q-16 -20 -35 -22t-33 8t-18 28.5z" />
<glyph unicode="&#xca;" horiz-adv-x="1091" d="M-4 416q2 -109 39 -191t96 -135t136 -78.5t159 -21.5q78 4 158 36.5t149 96.5q70 61 111 146t37 186q0 31 -17.5 46t-38 15t-37 -18.5t-16.5 -57.5q4 -59 -19.5 -115.5t-68.5 -103.5q-57 -59 -127 -87t-137 -32q-57 -4 -110.5 14.5t-94.5 56.5t-67.5 96.5t-28.5 138.5 q-4 102 40 201.5t122 170.5q72 63 161.5 91t188.5 -1q27 -41 55.5 -62.5t55 -26.5t48 3.5t33.5 24.5q12 14 13.5 33.5t-10 41t-38 44t-71.5 41.5q-4 8 -7 15t-8 15q-12 41 29 54q16 4 31.5 8t32.5 8q37 10 71.5 22.5t65.5 26.5q45 18 90 48t80 67t57.5 82t26.5 98 q4 47 -12.5 86t-43.5 68q-45 47 -100 59t-113.5 -3t-116 -52t-104.5 -88q-53 -55 -88 -122t-45 -134q0 -23 15.5 -36t36 -14t38 10t21.5 36q6 47 34.5 100t69.5 98q31 33 66 57.5t70.5 37t69.5 8.5t65 -29q20 -16 28 -38.5t8 -51.5q-2 -35 -20 -64.5t-45 -54t-58.5 -44 t-58.5 -34.5q-76 -37 -163 -57.5t-173 -14t-162.5 42t-130.5 109.5q-31 43 -44 94.5t-9 104.5q2 23 -13 35t-33.5 12t-35 -14.5t-16.5 -40.5q0 -78 20.5 -140.5t55.5 -113.5q57 -80 142 -122t179 -54q23 -4 39.5 -17.5t22.5 -36.5q-100 10 -188.5 -21.5t-162.5 -88.5 q-55 -43 -99 -96.5t-74.5 -115t-46 -127t-15.5 -130.5zM795 1804q-8 29 16 51l289 263q10 8 22.5 16t26.5 6q14 0 23.5 -10t15.5 -23l129 -254v-2q12 -23 -4 -47q-12 -18 -37 -18q-27 0 -39 22q-29 51 -54.5 102.5t-52.5 104.5l-262 -231q-18 -18 -41 -12q-27 6 -32 32z" />
<glyph unicode="&#xcb;" horiz-adv-x="1093" d="M4 422q2 -109 38 -189.5t95.5 -135t136 -79t158.5 -20.5q80 4 159 37t148 94q70 63 111 147t37 185q0 31 -17.5 47t-38 15t-37 -19.5t-16.5 -57.5q4 -59 -19.5 -115.5t-68.5 -103.5q-57 -59 -126.5 -86.5t-137.5 -31.5q-57 -4 -110.5 14t-94.5 56t-67.5 96.5t-28.5 138.5 q-4 102 40 201.5t122 170.5q72 66 162 92.5t188 -1.5q27 -41 56.5 -62.5t55 -27t47 3t33.5 24.5q23 29 4.5 75t-108.5 85q-4 8 -7 15t-7 16q-14 41 28 53q16 4 30.5 8t31.5 8q78 23 139 49q45 18 89 48t80 67t58.5 83t26.5 99q2 45 -14.5 84t-42.5 68q-45 47 -100.5 59.5 t-114 -2t-115.5 -51.5t-105 -88q-51 -55 -85.5 -123t-45.5 -133q0 -25 15.5 -38t35 -14t37 10t21.5 36q8 47 36.5 101t69.5 100q31 33 65 57t69.5 35.5t70.5 7.5t66 -29q39 -33 35 -88q-2 -35 -20.5 -65.5t-45.5 -55t-58.5 -44t-58.5 -34.5q-74 -37 -162 -57t-174 -14 t-162.5 42t-127.5 109q-66 90 -56 199q2 23 -12 35t-32.5 12t-35 -14.5t-16.5 -40.5q0 -150 76 -254q57 -80 141 -122t178 -54q48 -7 64 -54q-100 10 -189.5 -21.5t-160.5 -86.5q-111 -86 -175.5 -213t-60.5 -258zM868 1894q-4 37 31 78q31 35 69 36t60 -23q25 -29 16 -65.5 t-32 -59.5q-31 -31 -60.5 -34t-52.5 13q-27 18 -31 55zM1073 1894q-4 37 31 76q29 35 67.5 37t61.5 -25q23 -29 15 -64t-31 -60q-31 -29 -61 -32t-52 13q-27 18 -31 55z" />
<glyph unicode="&#xcc;" horiz-adv-x="903" d="M7 286.5q11 73.5 59 133.5q55 72 146 97.5t206 -3.5q23 -10 30 -28.5t1.5 -36t-21.5 -30.5t-39 -9q-170 35 -239 -60q-25 -31 -30 -74t10 -81.5t50 -64.5t90 -26q72 0 131.5 57.5t106.5 146.5t85 198.5t66.5 216t49 199t36.5 145.5q18 61 37 119.5t37 109.5q16 41 6 67 t-59 15q-92 -16 -171 -27.5t-157 -45.5q-66 -29 -103.5 -83.5t-45.5 -113.5q-6 -55 12 -96t55 -61.5t86.5 -15.5t102.5 40q18 12 35.5 8t26.5 -16.5t8 -30.5t-19 -33q-63 -49 -134 -58t-131.5 14.5t-100.5 76.5t-42 129q-2 53 13.5 104.5t44 95.5t69.5 76.5t95 49.5 q70 23 128 36t112.5 24t108.5 22.5t120 29.5q45 14 77.5 41t73.5 45q25 12 43.5 5t27.5 -22.5t8 -34.5t-17 -32q-43 -35 -83 -69.5t-61 -87.5q-23 -51 -47 -128t-49 -163q-20 -70 -45 -174.5t-57.5 -220t-76.5 -231.5t-102.5 -210t-132 -155.5t-168.5 -65.5 q-98 -4 -159.5 39t-88 108.5t-15.5 139zM597 2157.5q3 21.5 17.5 34t37 9.5t42.5 -32l232 -311q14 -20 10 -39t-18.5 -29t-33 -8t-34.5 24l-238 310q-18 20 -15 41.5z" />
<glyph unicode="&#xcd;" horiz-adv-x="888" d="M12.5 279.5q10.5 74.5 57.5 134.5q57 70 148 95.5t206 -3.5q23 -8 30 -26.5t2 -37t-21.5 -31t-39.5 -8.5q-84 16 -144.5 2t-94.5 -61q-25 -33 -30 -76t10.5 -80.5t50 -64.5t89.5 -27q72 0 131.5 57.5t106.5 146.5t85 198.5t66.5 217t50 199t36.5 144.5q18 61 36.5 119.5 t36.5 109.5q16 41 6 66.5t-61 17.5q-90 -16 -169 -28.5t-157 -47.5q-66 -27 -103.5 -82t-45.5 -114q-6 -55 12.5 -96t55 -60.5t86 -14.5t102.5 40q18 12 35.5 8t27 -17.5t8.5 -32t-20 -32.5q-63 -49 -134 -58.5t-131.5 15.5t-100 78t-41.5 127q-2 53 13 104t44 95t69.5 77 t94.5 49q70 25 128 38.5t111.5 23.5t108.5 21.5t121 29.5q45 14 77.5 42t73.5 46q25 12 43.5 5t27.5 -22.5t7 -35t-16 -31.5q-43 -35 -83 -70.5t-61 -89.5q-23 -49 -47 -125.5t-49 -162.5q-20 -70 -45 -174.5t-57.5 -221t-76.5 -232.5t-102.5 -210t-132.5 -155.5t-168 -65.5 q-98 -4 -159.5 39t-88 108.5t-16 140zM813 1810.5q-4 18.5 10 36.5l234 314q20 29 41.5 31.5t36 -9.5t17.5 -33.5t-13 -42.5l-240 -311q-16 -20 -34.5 -22t-33 8t-18.5 28.5z" />
<glyph unicode="&#xce;" horiz-adv-x="874" d="M-2 285.5q10 74.5 57 134.5q57 70 147.5 95.5t207.5 -3.5q23 -8 28.5 -26.5t0.5 -37t-20.5 -30.5t-37.5 -8q-84 16 -144.5 1.5t-97.5 -61.5q-25 -33 -29 -76t11.5 -80.5t50.5 -64.5t90 -27q72 0 131.5 57.5t106.5 146.5t85 198.5t66.5 217t49 199t36.5 144.5 q18 61 37 119.5t37 109.5q14 41 5 66.5t-60 17.5q-92 -16 -170 -28.5t-156 -46.5q-66 -27 -103.5 -82.5t-45.5 -114.5q-8 -55 11 -96t56 -60.5t86 -14.5t103 40q18 12 35.5 8t26.5 -17.5t8 -32t-19 -32.5q-63 -49 -134 -58t-131.5 15.5t-100.5 77.5t-42 127 q-2 53 13.5 104.5t44 95.5t69.5 76.5t94 49.5q70 25 128.5 38t111.5 23t108.5 21.5t120.5 29.5q45 14 77 42t73 46q25 12 44 5t28.5 -22.5t7.5 -34.5t-17 -32q-43 -35 -82.5 -70.5t-60.5 -88.5q-23 -49 -47.5 -126t-48.5 -163q-20 -70 -45 -174.5t-57.5 -221t-76.5 -232.5 t-102.5 -210t-132.5 -155.5t-168 -65.5q-98 -4 -159.5 39t-88 108.5t-16.5 140zM573 1817q-6 27 19 51l289 260q10 10 21 18t26 6q16 0 24.5 -11t14.5 -21l131 -256q10 -27 -4 -47q-16 -20 -39 -21q-23 0 -37 25q-29 51 -54.5 102t-54.5 102l-262 -231q-16 -16 -41 -10 q-27 8 -33 33z" />
<glyph unicode="&#xcf;" horiz-adv-x="880" d="M3 284.5q11 73.5 58 133.5q55 70 146.5 95.5t206.5 -3.5q23 -8 30 -26.5t1.5 -37t-21.5 -31t-39 -7.5q-84 16 -144.5 1.5t-95.5 -61.5q-25 -33 -29.5 -76t10.5 -80.5t50 -64.5t90 -27q72 0 131.5 57.5t106.5 146.5t85 199.5t66.5 217t50 198t35.5 144.5q18 61 37 119.5 t37 109.5q16 41 6 67.5t-59 16.5q-92 -16 -171 -27.5t-157 -45.5q-66 -29 -103.5 -83.5t-45.5 -113.5q-6 -55 12 -96t55 -61.5t86 -15.5t103 40q18 12 35.5 8t26.5 -17.5t8 -32t-19 -32.5q-63 -49 -134 -58.5t-131.5 15.5t-100.5 78t-42 127q-2 53 13.5 104.5t44 95.5 t69.5 76.5t95 51.5q70 23 128 36t112 23t108.5 21.5t119.5 29.5q45 14 78 42t74 46q25 12 43 5t27.5 -22.5t8.5 -34.5t-18 -32q-43 -35 -82.5 -70.5t-60.5 -89.5q-23 -49 -47.5 -125.5t-48.5 -162.5q-20 -70 -45 -174.5t-57.5 -221t-76.5 -232.5t-102.5 -210t-132.5 -154.5 t-168 -64.5q-98 -4 -159.5 39t-88 108.5t-15.5 139zM685 1910.5q-5 37.5 30 76.5q31 35 68.5 36.5t60.5 -22.5q25 -29 16.5 -65.5t-33.5 -59.5q-29 -31 -59.5 -34t-52.5 13q-25 18 -30 55.5zM889 1910.5q-4 37.5 31 76.5q31 35 68.5 36.5t60.5 -24.5q25 -29 15.5 -65.5 t-32.5 -59.5q-31 -29 -60.5 -32t-51.5 13q-27 18 -31 55.5z" />
<glyph unicode="&#xd0;" horiz-adv-x="1349" d="M4 422q6 113 63.5 203t147.5 137q70 35 143 41q20 2 51 21.5t37 39.5l9 31q4 23 -3.5 26t-25.5 3h-154q-25 0 -37 14t-12 30.5t11.5 31t33.5 14.5h178q29 -2 37.5 8t12.5 27l69 266q10 29 30.5 39t39 5t32 -20.5t7.5 -40.5q-16 -63 -32.5 -122.5t-33.5 -124.5 q-4 -16 -1 -26.5t30 -10.5q33 -2 64.5 -1t64.5 1q23 0 36 -13.5t14 -30t-11 -30.5t-37 -16h-154q-16 2 -29.5 -4.5t-19.5 -30.5l-8 -35q-4 -29 6 -55.5t33 -40.5q59 -29 101 -72t61 -108q8 -27 -3.5 -44.5t-28.5 -24.5t-35.5 -1t-26.5 24q-18 51 -64.5 87t-105 51.5 t-120 12.5t-108.5 -28q-61 -31 -99 -89t-48 -136q-8 -72 10 -127t59 -93t101.5 -55.5t134.5 -13.5q86 4 178 43t181 119t167 202t133 292q31 92 44.5 185t9.5 179t-29 160t-74 129q-72 80 -178 106.5t-213.5 5t-197 -87t-126.5 -169.5q-8 -18 -28.5 -22.5t-40 2.5 t-31.5 24.5t-2 42.5q27 86 88.5 151.5t141 108.5t172 63.5t182.5 13t173 -41t144 -97.5q59 -63 92 -148t43.5 -182.5t-2 -204t-43.5 -212.5q-57 -201 -147 -344.5t-195.5 -237.5t-220.5 -141t-221 -53q-94 -4 -174 20.5t-136.5 75.5t-86 127t-23.5 172zM313 367l66 247 q12 25 32.5 31t39 0t29.5 -21.5t5 -33.5l-63 -242q-10 -25 -28.5 -30t-38 1.5t-33 19.5t-9.5 28z" />
<glyph unicode="&#xd1;" horiz-adv-x="1583" d="M4 52.5q-6 -19.5 1 -41t38 -34.5q55 -23 111.5 -21.5t113.5 19.5q68 23 123 66t100.5 96t80 115.5t61.5 126.5q47 113 88 229.5t81 233t82 231t91 225.5q16 27 39.5 23t27.5 -37q23 -166 46.5 -316.5t50.5 -316.5q4 -18 19.5 -19t30.5 10t26.5 34.5t9.5 54.5 q-6 31 -15.5 92.5t-20.5 138t-22.5 159.5t-19.5 156t-12.5 130t0.5 80q2 10 5 19.5t7 19.5q10 29 -6.5 48t-38.5 23q-12 2 -25.5 -3t-25.5 -11q-98 -59 -180.5 -84.5t-161 -38t-160.5 -26t-180 -48.5q-47 -18 -87 -54t-68 -81t-43 -96t-15 -102q2 -47 18 -89t44 -75 t66 -54.5t83 -27.5q55 -6 109 11.5t97 51.5q18 16 18.5 36t-12 33t-31 17.5t-32.5 -10.5q-55 -55 -129 -45q-66 10 -94.5 58.5t-24.5 111.5q4 55 32 110.5t75 88.5q37 25 93 39t117.5 23t122 15.5t107.5 14.5q61 6 43 -57q-47 -115 -86 -232t-77 -231.5t-80 -229t-93 -227.5 q-20 -49 -49 -97t-65.5 -90t-81.5 -75t-97 -47q-43 -12 -83 -11t-80 17q-20 10 -38 0t-24 -29.5zM1100 149q2 46 14 102t32.5 118.5t43.5 128.5q31 88 72 206.5t89 241.5t98 232.5t99 179.5q35 51 78 93t94 71q41 25 87 39t94 14q57 0 114 -23q33 -12 45 -43q6 -16 1 -34.5 t-21 -26.5q-12 -8 -33 0q-84 35 -172 10q-61 -16 -112.5 -61t-94.5 -109q-45 -66 -89 -156t-83 -188t-70.5 -194.5t-52.5 -171.5q-10 -37 -15 -87.5t3 -91.5q16 -57 25.5 -114.5t5.5 -116.5q-2 -29 -12.5 -58.5t-28 -54t-42 -41t-55.5 -16.5q-35 -2 -63.5 20.5t-40.5 53.5 t-10 77zM1197 173q-3 -36 1 -63.5t23 -27.5q16 0 30.5 25.5t16.5 62.5q0 27 -6.5 59.5t-14.5 65.5q-6 16 -16.5 15t-16.5 -21q-2 -12 -8 -46t-9 -70zM1290 1847q18 49 53 79t80 40q82 20 160 -37q41 -29 74 -47t67 -2q25 10 58 59q10 16 27.5 18.5t30.5 -5.5t20.5 -23.5 t-0.5 -32.5q-37 -80 -109 -108q-37 -14 -66.5 -12t-56 13t-52 29.5t-52.5 36.5q-41 27 -80 17q-45 -12 -70 -66q-8 -18 -25.5 -21t-33 4t-23.5 22.5t-2 35.5z" />
<glyph unicode="&#xd2;" horiz-adv-x="1226" d="M-2 506q0 100 18.5 204.5t49 202t70.5 184.5t85 150q12 16 26.5 29.5t37.5 7.5q23 -4 36 -25.5t7 -44.5q-4 -12 -11.5 -21t-13.5 -19q-37 -49 -71.5 -124t-61.5 -163t-43 -184.5t-17 -186.5t17 -170t59 -135t93.5 -84t113 -26t126 39t130.5 108q63 70 117.5 159t95.5 185 t70 194.5t45 190.5q4 31 8 77t4 99t-5 107.5t-19 101.5q-16 53 -50 96t-94 47q-55 4 -113.5 -33.5t-103.5 -97.5q-68 -88 -104.5 -216t-31.5 -261t57.5 -253t160.5 -191q16 -10 17.5 -31t-9 -37t-30 -24.5t-43.5 4.5q-129 88 -191.5 228t-70 294.5t35.5 303t127 255.5 q66 82 150 128t168 38q72 -6 131 -56.5t94 -158.5q16 -53 23.5 -111.5t7.5 -116t-5.5 -110.5t-11.5 -96q-20 -123 -56 -243t-89 -233q-25 -53 -5.5 -72t60.5 -3q80 31 156 91t119 136q8 12 16 22.5t25 14.5q23 8 41 -4.5t20 -34.5q0 -12 -2 -19q-2 -12 -14 -28 q-104 -164 -277 -250q-43 -23 -90 -37t-96 -18q-41 -4 -66.5 -19.5t-56.5 -44.5q-16 -23 -35 -41q-86 -96 -176 -141t-175 -46t-160 41t-128 120q-49 72 -70.5 162t-21.5 190zM652.5 2147q2.5 22 17 34t36 9t42.5 -31l233 -312q14 -18 10 -36.5t-18.5 -28.5t-32.5 -9t-35 23 l-239 309q-16 20 -13.5 42z" />
<glyph unicode="&#xd3;" horiz-adv-x="1230" d="M-2 506q0 100 18.5 204.5t49 202t70.5 184.5t85 150q12 16 26.5 29.5t37.5 7.5q23 -4 36 -25.5t7 -44.5q-4 -12 -11.5 -21t-13.5 -19q-37 -49 -71.5 -124t-61.5 -163t-43 -184.5t-17 -186.5t17 -170t59 -135t93.5 -84t113 -26t126 39t130.5 108q63 70 117.5 159t95.5 185 t70 194.5t45 190.5q4 31 8 77t4 99t-5 107.5t-19 101.5q-16 53 -50 96t-94 47q-55 4 -113.5 -33.5t-103.5 -97.5q-68 -88 -104.5 -216t-31.5 -261t57.5 -253t160.5 -191q16 -10 17.5 -31t-9 -37t-30 -24.5t-43.5 4.5q-129 88 -191.5 228t-70 294.5t35.5 303t127 255.5 q66 82 150 128t168 38q72 -6 131 -56.5t94 -158.5q16 -53 23.5 -111.5t7.5 -116t-5.5 -110.5t-11.5 -96q-20 -123 -56 -243t-89 -233q-25 -53 -5.5 -72t60.5 -3q80 31 156 91t119 136q8 12 16 22.5t25 14.5q23 8 41 -4.5t20 -34.5q0 -12 -2 -19q-2 -12 -14 -28 q-104 -164 -277 -250q-43 -23 -90 -37t-96 -18q-41 -4 -66.5 -19.5t-56.5 -44.5q-16 -23 -35 -41q-86 -96 -176 -141t-175 -46t-160 41t-128 120q-49 72 -70.5 162t-21.5 190zM823.5 1831q-3.5 19 10.5 37l231 311q20 29 42.5 32t37 -9.5t17.5 -34t-15 -41.5l-238 -309 q-16 -20 -34.5 -22.5t-33 7.5t-18 29z" />
<glyph unicode="&#xd4;" horiz-adv-x="1230" d="M-2 506q0 100 18.5 204.5t49 202t70.5 184.5t85 150q12 16 26.5 29.5t37.5 7.5q23 -4 36 -25.5t7 -44.5q-4 -12 -11.5 -21t-13.5 -19q-37 -49 -71.5 -124t-61.5 -163t-43 -184.5t-17 -186.5t17 -170t59 -135t93.5 -84t113 -26t126 39t130.5 108q63 70 117.5 159t95.5 185 t70 194.5t45 190.5q4 31 8 77t4 99t-5 107.5t-19 101.5q-16 53 -50 96t-94 47q-55 4 -113.5 -33.5t-103.5 -97.5q-68 -88 -104.5 -216t-31.5 -261t57.5 -253t160.5 -191q16 -10 17.5 -31t-9 -37t-30 -24.5t-43.5 4.5q-129 88 -191.5 228t-70 294.5t35.5 303t127 255.5 q66 82 150 128t168 38q72 -6 131 -56.5t94 -158.5q16 -53 23.5 -111.5t7.5 -116t-5.5 -110.5t-11.5 -96q-20 -123 -56 -243t-89 -233q-25 -53 -5.5 -72t60.5 -3q80 31 156 91t119 136q8 12 16 22.5t25 14.5q23 8 41 -4.5t20 -34.5q0 -12 -2 -19q-2 -12 -14 -28 q-104 -164 -277 -250q-43 -23 -90 -37t-96 -18q-41 -4 -66.5 -19.5t-56.5 -44.5q-16 -23 -35 -41q-86 -96 -176 -141t-175 -46t-160 41t-128 120q-49 72 -70.5 162t-21.5 190zM645 1794q-8 29 17 51l288 262q10 8 22.5 16.5t26.5 6.5q14 0 23.5 -10.5t15.5 -22.5l129 -254 v-2q12 -23 -4 -47q-12 -18 -37 -18q-27 0 -39 22q-29 51 -54 102.5t-52 104.5l-262 -231q-18 -18 -41 -13q-27 6 -33 33z" />
<glyph unicode="&#xd5;" horiz-adv-x="1226" d="M-2 506q0 100 18.5 204.5t49 202t70.5 184.5t85 150q12 16 26.5 29.5t37.5 7.5q23 -4 36 -25.5t7 -44.5q-4 -12 -11.5 -21t-13.5 -19q-37 -49 -71.5 -124t-61.5 -163t-43 -184.5t-17 -186.5t17 -170t59 -135t93.5 -84t113 -26t126 39t130.5 108q63 70 117.5 159t95.5 185 t70 194.5t45 190.5q4 31 8 77t4 99t-5 107.5t-19 101.5q-16 53 -50 96t-94 47q-55 4 -113.5 -33.5t-103.5 -97.5q-68 -88 -104.5 -216t-31.5 -261t57.5 -253t160.5 -191q16 -10 17.5 -31t-9 -37t-30 -24.5t-43.5 4.5q-129 88 -191.5 228t-70 294.5t35.5 303t127 255.5 q66 82 150 128t168 38q72 -6 131 -56.5t94 -158.5q16 -53 23.5 -111.5t7.5 -116t-5.5 -110.5t-11.5 -96q-20 -123 -56 -243t-89 -233q-25 -53 -5.5 -72t60.5 -3q80 31 156 91t119 136q8 12 16 22.5t25 14.5q23 8 41 -4.5t20 -34.5q0 -12 -2 -19q-2 -12 -14 -28 q-104 -164 -277 -250q-43 -23 -90 -37t-96 -18q-41 -4 -66.5 -19.5t-56.5 -44.5q-16 -23 -35 -41q-86 -96 -176 -141t-175 -46t-160 41t-128 120q-49 72 -70.5 162t-21.5 190zM645 1847q18 49 53 79t80 40q82 20 160 -37q41 -29 73.5 -47t67.5 -2q25 10 58 59 q10 16 27.5 18.5t30.5 -5.5t20.5 -23.5t-1.5 -32.5q-37 -80 -108 -108q-37 -14 -66.5 -12t-56.5 13t-52 29.5t-52 36.5q-41 27 -80 17q-45 -12 -70 -66q-8 -18 -25.5 -21t-33 4t-23.5 22.5t-2 35.5z" />
<glyph unicode="&#xd6;" horiz-adv-x="1230" d="M-2 506q0 100 18.5 204.5t49 202t70.5 184.5t85 150q12 16 26.5 29.5t37.5 7.5q23 -4 36 -25.5t7 -44.5q-4 -12 -11.5 -21t-13.5 -19q-37 -49 -71.5 -124t-61.5 -163t-43 -184.5t-17 -186.5t17 -170t59 -135t93.5 -84t113 -26t126 39t130.5 108q63 70 117.5 159t95.5 185 t70 194.5t45 190.5q4 31 8 77t4 99t-5 107.5t-19 101.5q-16 53 -50 96t-94 47q-55 4 -113.5 -33.5t-103.5 -97.5q-68 -88 -104.5 -216t-31.5 -261t57.5 -253t160.5 -191q16 -10 17.5 -31t-9 -37t-30 -24.5t-43.5 4.5q-129 88 -191.5 228t-70 294.5t35.5 303t127 255.5 q66 82 150 128t168 38q72 -6 131 -56.5t94 -158.5q16 -53 23.5 -111.5t7.5 -116t-5.5 -110.5t-11.5 -96q-20 -123 -56 -243t-89 -233q-25 -53 -5.5 -72t60.5 -3q80 31 156 91t119 136q8 12 16 22.5t25 14.5q23 8 41 -4.5t20 -34.5q0 -12 -2 -19q-2 -12 -14 -28 q-104 -164 -277 -250q-43 -23 -90 -37t-96 -18q-41 -4 -66.5 -19.5t-56.5 -44.5q-16 -23 -35 -41q-86 -96 -176 -141t-175 -46t-160 41t-128 120q-49 72 -70.5 162t-21.5 190zM685 1910.5q-5 37.5 30 76.5q31 35 68.5 36.5t60.5 -22.5q25 -29 16.5 -65.5t-33.5 -59.5 q-29 -31 -59.5 -34t-52.5 13q-25 18 -30 55.5zM889 1910.5q-4 37.5 31 76.5q31 35 68.5 36.5t60.5 -24.5q25 -29 15.5 -65.5t-32.5 -59.5q-31 -29 -60.5 -32t-51.5 13q-27 18 -31 55.5z" />
<glyph unicode="&#xd7;" horiz-adv-x="825" d="M53 403q-6 12 0 27q6 14 23 25l211 139q14 10 16 26.5t-14 30.5l-105 84q-20 16 -21 34.5t9 31t27.5 15.5t36.5 -9q39 -29 61 -47.5t61 -48.5q23 -16 50.5 -16.5t48.5 12.5q51 35 95 63.5t93 60.5q20 12 38.5 8.5t28 -16t7.5 -30t-23 -31.5q-47 -31 -92 -60.5t-92 -60.5 q-12 -10 -14 -24.5t12 -24.5l108 -88q18 -14 19.5 -31.5t-7.5 -31t-27.5 -17.5t-39.5 10q-20 16 -34.5 27.5t-27 22t-26.5 20.5t-35 26q-18 16 -40.5 18.5t-51.5 -16.5q-55 -39 -110.5 -75.5t-112.5 -73.5q-18 -14 -43 -8q-23 8 -29 28z" />
<glyph unicode="&#xd8;" horiz-adv-x="1196" d="M11 414.5q-13 148.5 12.5 303t81 297t122.5 238.5q12 16 26.5 29.5t39.5 7.5q23 -4 36 -25.5t5 -43.5q-4 -10 -10.5 -19.5t-14.5 -19.5q-37 -49 -71.5 -125t-61 -164t-43 -184.5t-17.5 -186.5t17.5 -170t59.5 -135q63 -80 102 2q37 86 75 168t74 168q45 98 89.5 196.5 t89.5 198.5q29 59 55.5 121t54.5 121q29 66 56.5 130t56.5 130q16 35 10 48t-47 11q-53 -4 -105.5 -39.5t-93.5 -89.5q-39 -51 -67.5 -115.5t-45 -137t-21.5 -149.5t5 -151q6 -31 -7 -49t-32.5 -23t-38 4t-24.5 32q-14 88 -11 179t23.5 177t55 164t83.5 139q66 84 150 129 t166 39q35 -4 55.5 -2t32.5 31q8 16 15 34.5t16 36.5q6 14 16 24.5t27 12.5q27 6 45 -14q12 -12 14 -28.5t-6 -31.5q-10 -23 -18.5 -42t-18.5 -39q-6 -16 -11 -25.5t-5 -21t6 -27t20 -39.5q20 -37 37 -86q16 -53 23.5 -111.5t8.5 -116t-4 -110.5t-12 -96q-35 -217 -119 -419 t-231 -364q-92 -102 -188 -146t-187 -40q-23 0 -40 -4t-33 -39q-8 -18 -16.5 -36.5t-16.5 -39.5q-14 -33 -47 -35q-33 0 -47 25q-14 20 -4 47l37 80q14 31 7 46t-24 28q-47 39 -80 88q-74 106 -87 254.5zM380 132q3 -13 14 -19t40 0q53 10 109.5 45t113.5 98 q63 70 116.5 158t95.5 184t70 194.5t44 190.5q6 31 10 77t4 99t-6 107.5t-20 101.5q-20 63 -45 10q-23 -55 -47.5 -109.5t-47.5 -107.5q-29 -61 -55 -122.5t-55 -120.5q-45 -100 -89 -198.5t-89 -197.5q-37 -84 -75 -166t-75 -166q-6 -12 -11 -28.5t-2 -29.5z" />
<glyph unicode="&#xd9;" horiz-adv-x="1568" d="M7 982q-1 101 29 191.5t87 161t139 101.5q74 27 154 36t156.5 17t148.5 22.5t131 51.5q12 6 24.5 13t24.5 11q23 10 43 8q18 -2 30.5 -20.5t8.5 -36.5q-2 -8 -8 -15t-10 -12q-10 -8 -19.5 -15t-19.5 -15t-17.5 -14.5t-15.5 -16.5q-14 -14 -25 -35q-35 -57 -74.5 -141 t-77.5 -183.5t-73 -207t-59 -213.5q-4 -25 -24.5 -36t-42 -11t-38 10t-12.5 33q20 90 47 180t57.5 176t62.5 165t64 144q8 20 6 32.5t-9 19t-17 8.5t-19 0q-49 -6 -100 -8.5t-102 -7.5t-96.5 -16t-81.5 -36q-51 -35 -87 -90t-52.5 -119.5t-14.5 -134.5t25.5 -134.5 t70.5 -119.5t119 -90q86 -41 174 -41t172 51q68 41 118 108.5t70 149.5q8 33 24.5 45.5t35 9t33 -17.5t16.5 -37q-12 -70 -44 -132t-78 -114.5t-102.5 -90.5t-119.5 -58q-33 -10 -65.5 -31.5t-36.5 -60.5q-8 -86 0 -146q16 -104 74.5 -141t131.5 -23q176 33 275 203 q23 39 47.5 99.5t50 130t51 146.5t48 149.5t40 136t27.5 110.5q12 47 21.5 95.5t23.5 95.5q18 57 51 81.5t61.5 18.5t44 -37.5t-0.5 -85.5q-14 -45 -37 -93t-39 -93q-37 -102 -73 -216t-64.5 -225.5t-49 -214t-28.5 -182.5q-10 -86 5 -150.5t67 -133.5q20 -27 17 -48.5 t-17.5 -35t-35 -15.5t-36.5 13q-29 25 -53.5 68.5t-40 94t-20.5 103.5t3 98q-53 -98 -141 -155.5t-199 -71.5q-57 -8 -111.5 4t-98.5 45t-73.5 88t-37.5 135q-4 35 -2 74t6 82q4 41 -18.5 60.5t-57.5 29.5q-117 37 -191.5 111.5t-111.5 167t-38 193.5zM933 2151 q3 22 17.5 34.5t36 9t41.5 -31.5l234 -312q14 -18 10 -36.5t-18.5 -28.5t-33 -9t-34.5 23l-240 309q-16 20 -13 42z" />
<glyph unicode="&#xda;" horiz-adv-x="1568" d="M7 982q1 -101 38 -193.5t111.5 -167t191.5 -111.5q35 -10 57.5 -29.5t18.5 -60.5q-4 -43 -6 -82t2 -74q8 -80 37.5 -135t73.5 -88t98.5 -45t111.5 -4q111 14 199 71.5t141 155.5q-8 -45 -3 -98t20.5 -103.5t40 -94.5t53.5 -68q16 -14 36.5 -12.5t35 15t17.5 35t-17 48.5 q-51 70 -66.5 134t-5.5 150q8 80 28.5 182.5t49 214t64.5 225.5t73 216q16 45 38.5 93t37.5 93q16 53 0.5 85t-44 38t-61 -18.5t-51.5 -81.5q-14 -47 -23.5 -95.5t-21.5 -95.5q-10 -47 -27.5 -110.5t-40 -136t-48 -149.5t-51 -146.5t-50.5 -130t-47 -99.5 q-98 -170 -275 -203q-74 -14 -132 23t-74 141q-8 59 0 146q4 39 36.5 60.5t65.5 31.5q63 20 119.5 58t102.5 90.5t78 115t44 131.5q-2 23 -16.5 37t-33 17.5t-34.5 -9t-25 -45.5q-20 -82 -70 -149.5t-118 -108.5q-84 -51 -172 -51t-174 41q-72 35 -119 90t-70.5 119.5 t-25.5 134.5t14.5 134.5t52 119.5t87.5 90q37 25 82 36t96 16t102 7t100 9q8 2 18.5 0t17.5 -8.5t9.5 -18.5t-6.5 -33q-33 -66 -64.5 -144.5t-62 -164.5t-57.5 -176t-47 -180q-4 -23 12.5 -33t38 -10t42 11t24.5 36q25 106 59.5 213.5t72.5 207t78 183.5t74 141q11 21 25 35 q8 10 15 16.5t18 14.5q10 8 19 15t20 15q4 4 10 11.5t8 15.5q4 18 -8 36.5t-31 20.5q-20 2 -43 -8q-12 -4 -24.5 -11t-24.5 -13q-59 -37 -131 -51.5t-148.5 -22.5t-156.5 -17.5t-154 -35.5q-82 -31 -139 -101.5t-87 -161t-29 -191.5zM1172 1818.5q-4 18.5 10 36.5l231 312 q20 29 43 32t37 -9.5t17 -34t-15 -41.5l-238 -310q-16 -20 -34.5 -22t-32.5 8t-18 28.5z" />
<glyph unicode="&#xdb;" horiz-adv-x="1568" d="M7 982q1 -101 38 -193.5t111.5 -167t191.5 -111.5q35 -10 57.5 -29.5t18.5 -60.5q-4 -43 -6 -82t2 -74q8 -80 37.5 -135t73.5 -88t98.5 -45t111.5 -4q111 14 199 71.5t141 155.5q-8 -45 -3 -98t20.5 -103.5t40 -94.5t53.5 -68q16 -14 36.5 -12.5t35 15t17.5 35t-17 48.5 q-51 70 -66.5 134t-5.5 150q8 80 28.5 182.5t49 214t64.5 225.5t73 216q16 45 38.5 93t37.5 93q16 53 0.5 85t-44 38t-61 -18.5t-51.5 -81.5q-14 -47 -23.5 -95.5t-21.5 -95.5q-10 -47 -27.5 -110.5t-40 -136t-48 -149.5t-51 -146.5t-50.5 -130t-47 -99.5 q-98 -170 -275 -203q-74 -14 -132 23t-74 141q-8 59 0 146q4 39 36.5 60.5t65.5 31.5q63 20 119.5 58t102.5 90.5t78 115t44 131.5q-2 23 -16.5 37t-33 17.5t-34.5 -9t-25 -45.5q-20 -82 -70 -149.5t-118 -108.5q-84 -51 -172 -51t-174 41q-72 35 -119 90t-70.5 119.5 t-25.5 134.5t14.5 134.5t52 119.5t87.5 90q37 25 82 36t96 16t102 7t100 9q8 2 18.5 0t17.5 -8.5t9.5 -18.5t-6.5 -33q-33 -66 -64.5 -144.5t-62 -164.5t-57.5 -176t-47 -180q-4 -23 12.5 -33t38 -10t42 11t24.5 36q25 106 59.5 213.5t72.5 207t78 183.5t74 141q11 21 25 35 q8 10 15 16.5t18 14.5q10 8 19 15t20 15q4 4 10 11.5t8 15.5q4 18 -8 36.5t-31 20.5q-20 2 -43 -8q-12 -4 -24.5 -11t-24.5 -13q-59 -37 -131 -51.5t-148.5 -22.5t-156.5 -17.5t-154 -35.5q-82 -31 -139 -101.5t-87 -161t-29 -191.5zM1001 1800q-8 29 17 51l289 263 q10 8 22 16t27 6q14 0 23.5 -10t15.5 -23l129 -254v-2q12 -23 -4 -47q-12 -18 -37 -18q-27 0 -39 22q-29 51 -54.5 102.5t-52.5 104.5l-262 -231q-18 -18 -41 -13q-27 6 -33 33z" />
<glyph unicode="&#xdc;" horiz-adv-x="1568" d="M7 982q1 -101 38 -193.5t111.5 -167t191.5 -111.5q35 -10 57.5 -29.5t18.5 -60.5q-4 -43 -6 -82t2 -74q8 -80 37.5 -135t73.5 -88t98.5 -45t111.5 -4q111 14 199 71.5t141 155.5q-8 -45 -3 -98t20.5 -103.5t40 -94.5t53.5 -68q16 -14 36.5 -12.5t35 15t17.5 35t-17 48.5 q-51 70 -66.5 134t-5.5 150q8 80 28.5 182.5t49 214t64.5 225.5t73 216q16 45 38.5 93t37.5 93q16 53 0.5 85t-44 38t-61 -18.5t-51.5 -81.5q-14 -47 -23.5 -95.5t-21.5 -95.5q-10 -47 -27.5 -110.5t-40 -136t-48 -149.5t-51 -146.5t-50.5 -130t-47 -99.5 q-98 -170 -275 -203q-74 -14 -132 23t-74 141q-8 59 0 146q4 39 36.5 60.5t65.5 31.5q63 20 119.5 58t102.5 90.5t78 115t44 131.5q-2 23 -16.5 37t-33 17.5t-34.5 -9t-25 -45.5q-20 -82 -70 -149.5t-118 -108.5q-84 -51 -172 -51t-174 41q-72 35 -119 90t-70.5 119.5 t-25.5 134.5t14.5 134.5t52 119.5t87.5 90q37 25 82 36t96 16t102 7t100 9q8 2 18.5 0t17.5 -8.5t9.5 -18.5t-6.5 -33q-33 -66 -64.5 -144.5t-62 -164.5t-57.5 -176t-47 -180q-4 -23 12.5 -33t38 -10t42 11t24.5 36q25 106 59.5 213.5t72.5 207t78 183.5t74 141q11 21 25 35 q8 10 15 16.5t18 14.5q10 8 19 15t20 15q4 4 10 11.5t8 15.5q4 18 -8 36.5t-31 20.5q-20 2 -43 -8q-12 -4 -24.5 -11t-24.5 -13q-59 -37 -131 -51.5t-148.5 -22.5t-156.5 -17.5t-154 -35.5q-82 -31 -139 -101.5t-87 -161t-29 -191.5zM1117 1906.5q-5 37.5 30 75.5 q31 35 68.5 37t60.5 -22q25 -29 17 -65.5t-33 -59.5q-29 -31 -60 -34t-53 13q-25 18 -30 55.5zM1321 1906.5q-4 37.5 31 75.5q31 35 68.5 37t60.5 -24q25 -29 15.5 -65.5t-32.5 -59.5q-31 -29 -60.5 -32t-51.5 13q-27 18 -31 55.5z" />
<glyph unicode="&#xdd;" horiz-adv-x="1454" d="M6 1223q-6 -61 9.5 -131t50.5 -121q31 -47 79 -80q16 -10 36 -10t34 16q12 14 12 34.5t-16 33.5q-16 10 -27.5 22t-23.5 27q-35 47 -46.5 104.5t-0.5 116.5q12 59 38.5 105t63.5 79t81 49.5t87 16.5q80 0 146.5 -58.5t82.5 -183.5q12 -86 -10 -179t-53 -185.5 t-55.5 -180.5t-18.5 -166q8 -117 79 -173t181 -40q63 10 124 37t110 62q16 10 26.5 2t5.5 -19q-10 -29 -18 -56.5t-18 -55.5q-6 -18 -33 -44t-84 -34q-59 -6 -120.5 -26.5t-116 -52.5t-95.5 -77t-59 -100q-16 -49 -13.5 -98.5t26.5 -85t67 -55t104 -11.5q59 6 110.5 40 t93.5 82t75.5 105.5t56.5 112.5q6 18 -6.5 31.5t-30.5 17.5t-37.5 -4t-28.5 -35q-18 -45 -44.5 -89t-60.5 -80t-74 -60.5t-85 -28.5q-25 -4 -41 6.5t-23 27.5t-8 40t5 43q12 43 47 80t81 64.5t98 45t99 19.5q104 6 197.5 -41t159.5 -127q14 -14 30.5 -15t28.5 8t16.5 26.5 t-8.5 39.5q-16 37 -64 77t-100 69q-35 18 -54 44.5t-3 69.5q45 137 92 292t94 290q18 51 43 99.5t35 101.5q8 37 -9 64.5t-46 31.5t-59.5 -18.5t-46.5 -83.5q-14 -47 -22.5 -96.5t-18.5 -96.5q-20 -94 -59.5 -170t-91.5 -132t-113.5 -90t-127.5 -46q-74 -12 -113.5 19.5 t-37.5 109.5q2 90 29.5 179t56.5 179t46 183.5t-3 189.5q-16 82 -50 140.5t-78 95t-96.5 53t-105.5 16.5q-68 0 -133.5 -26.5t-118.5 -74.5t-89 -114.5t-42 -146.5zM1063 1632.5q-4 18.5 10 36.5l232 311q20 29 42.5 32t37 -9t17.5 -33.5t-16 -42.5l-237 -309 q-16 -20 -34.5 -22.5t-33 8t-18.5 29z" />
<glyph unicode="&#xdf;" horiz-adv-x="1030" d="M119 254q12 61 34.5 158.5t52.5 212t63.5 236.5t69.5 231.5t71.5 198.5t68.5 136q53 80 131 120t176 28q121 -16 185.5 -102.5t50.5 -204.5q-14 -113 -68.5 -188.5t-146.5 -137.5q-29 -18 -47.5 -31.5t-27.5 -27t-5 -29.5t23 -41q43 -55 74.5 -106.5t44 -105.5t3 -113.5 t-50.5 -127.5q-23 -37 -54.5 -69.5t-70.5 -55t-82 -35t-88 -5.5q-74 10 -126 56t-83 111q-10 23 -0.5 41.5t26.5 27.5t37.5 5t31.5 -26q20 -41 52 -75t79 -38q57 -4 106 28.5t78 77.5q39 61 45 110.5t-10.5 92.5t-48 84t-64.5 88q-31 43 -33 78t15.5 63.5t48.5 53t65 49.5 q72 49 115 102.5t58 145.5q10 82 -25 138t-121 67q-66 8 -115 -17.5t-86 -79.5q-31 -43 -65.5 -129t-69.5 -193.5t-68.5 -228t-61 -233.5t-50.5 -208t-35 -153q-4 -18 -19.5 -30.5t-33.5 -7.5q-23 2 -38 19t-11 40z" />
<glyph unicode="&#xe0;" horiz-adv-x="714" d="M1 429q1 87 28 177q29 96 81 176t113 115q43 23 85 25t77 -13q37 -16 53.5 -39.5t32.5 -19.5q14 4 18 22q6 25 27 33t39 3t28.5 -24.5t-1.5 -52.5q-4 -14 -15.5 -43.5t-25 -69.5t-27.5 -87t-27 -92q-12 -47 -20 -88t-10 -76q-6 -90 51 -86q37 2 72.5 37.5t67.5 83 t59.5 97.5t46.5 83q6 12 19 13t25.5 -5t17.5 -19.5t-3 -27.5q-23 -41 -52.5 -96.5t-66.5 -107.5t-82 -91t-98 -47q-39 -6 -69.5 4t-51.5 43q-25 37 -43 37q-12 0 -37 -21q-25 -20 -53.5 -36.5t-58.5 -24.5q-53 -12 -94 9.5t-70 62.5q-37 59 -36 146zM101 449.5 q-7 -72.5 16 -115.5q10 -25 32.5 -37t57.5 4q51 23 99 91.5t73 152.5q20 66 29 128t-7 105q-12 35 -45 49q-20 8 -46.5 3t-57.5 -27q-35 -25 -66.5 -82t-54.5 -127q-23 -72 -30 -144.5zM235 1377q3 22 17 34t35.5 9t42.5 -31l184 -246q14 -20 10 -39t-18 -29t-32.5 -8 t-35.5 23l-190 245q-16 20 -13 42z" />
<glyph unicode="&#xe1;" horiz-adv-x="716" d="M3 424q-1 -86 36 -145q29 -41 70 -62.5t94 -9.5q31 8 59.5 24.5t52.5 36.5q25 20 37 21q18 -2 43 -39q39 -59 121 -47q53 8 98 48t82 92t67 107.5t52 96.5q8 14 3 26.5t-17.5 18.5t-25.5 6t-19 -12q-18 -33 -46 -83t-60 -97.5t-67.5 -83t-72.5 -37.5q-57 -4 -51 86 q2 33 10 74.5t20 86.5q12 47 26.5 93.5t28 86.5t25 70.5t15.5 44.5q12 33 1.5 52.5t-28.5 24.5t-38.5 -3t-26.5 -33q-5 -18 -19 -22q-16 -4 -32.5 18.5t-53.5 38.5q-76 33 -162 -12q-61 -33 -113.5 -114t-80.5 -177q-27 -90 -28 -176zM103.5 444.5q7.5 71.5 29.5 145.5 q23 68 54.5 125t66.5 84q59 43 104 22q31 -12 45 -49q16 -41 7 -103.5t-29 -127.5q-25 -86 -73 -154t-99 -90q-35 -16 -57.5 -4t-32.5 37q-23 43 -15.5 114.5zM330 1100q-4 19 10 39l184 247q20 29 42 32t36 -9t17.5 -33.5t-13.5 -42.5l-190 -246q-16 -23 -35 -24.5t-33 8.5 t-18 29z" />
<glyph unicode="&#xe2;" horiz-adv-x="706" d="M-1 426q-1 -86 36 -145q29 -41 69.5 -62.5t94.5 -9.5q31 8 59.5 24.5t52.5 36.5q25 20 37 21q18 0 43 -37q20 -33 51 -43t70 -4q53 8 98 47t82 91t66.5 107.5t52.5 96.5q8 14 3 27.5t-17.5 19.5t-25.5 5t-19 -13q-18 -33 -46 -83t-60 -97.5t-67.5 -83t-72.5 -37.5 q-57 -4 -51 86q2 35 10 75.5t20 86.5q12 47 26.5 93t28 86t24.5 70.5t16 44.5q12 33 1.5 52.5t-28.5 24.5t-38.5 -3t-27.5 -33q-4 -18 -18 -22q-16 -4 -32.5 18.5t-53.5 38.5q-35 16 -77 14.5t-85 -24.5q-61 -35 -113.5 -115t-80.5 -176q-27 -92 -28 -178zM99 446.5 q7 71.5 30 145.5q23 68 54.5 126t66.5 83q59 43 104 22q31 -12 45 -49q16 -41 7 -103.5t-29 -127.5q-25 -84 -73 -152.5t-99 -91.5q-35 -16 -57.5 -4t-32.5 37q-23 43 -16 114.5zM172 1108q-6 31 18 51l248 225q10 10 21.5 17.5t25.5 7.5q14 -2 23.5 -12.5t15.5 -22.5 l123 -239q10 -27 -4 -48q-14 -20 -39 -20t-37 23q-18 35 -33.5 62.5t-29.5 59.5q-18 39 -47 37.5t-60 -30.5l-151 -132q-16 -18 -41 -12q-27 8 -33 33z" />
<glyph unicode="&#xe3;" horiz-adv-x="706" d="M-1 423q-1 -87 36 -147q29 -41 69.5 -61t94.5 -8q31 6 59.5 22.5t52.5 36.5q25 20 37 21q18 0 43 -37q20 -33 51 -43t70 -4q53 8 98 47t82 91t66.5 107.5t52.5 96.5q8 14 3 27.5t-17.5 19.5t-25.5 6t-19 -12q-18 -33 -46 -83t-60 -97.5t-67.5 -83t-72.5 -37.5 q-57 -4 -51 84q2 35 10 76.5t20 86.5t26.5 92.5t28 87.5t24.5 69.5t16 43.5q12 33 1.5 52.5t-28.5 25.5t-38.5 -3t-27.5 -34q-4 -18 -18 -22q-16 -4 -32.5 19.5t-53.5 39.5q-76 33 -162 -12q-61 -35 -113.5 -115t-80.5 -176q-27 -90 -28 -177zM99 443.5q7 72.5 30 144.5 q23 70 54.5 127t66.5 82q31 23 57.5 27.5t46.5 -3.5q31 -12 45 -49q16 -41 7 -103.5t-29 -129.5q-25 -84 -73 -153t-99 -91q-35 -14 -57.5 -2t-32.5 37q-23 41 -16 113.5zM238 1139q14 41 43.5 66.5t64.5 33.5q68 16 131 -31q33 -25 59.5 -40t55.5 -1q23 10 47 50 q8 14 22.5 15t25.5 -5t16.5 -19.5t-1.5 -27.5q-31 -68 -88 -90q-31 -12 -55 -10.5t-45.5 12t-42 25t-43.5 30.5q-35 23 -66 12q-35 -10 -57 -53q-6 -16 -20.5 -19.5t-26.5 3t-19.5 19.5t-0.5 30z" />
<glyph unicode="&#xe4;" horiz-adv-x="706" d="M-1 427q-1 -87 36 -144q29 -43 69.5 -63.5t94.5 -8.5q31 6 59.5 22.5t52.5 36.5q25 20 37 21q18 0 43 -37q20 -33 51 -43t70 -4q53 8 98 48t82 92t66.5 106.5t52.5 95.5q8 14 3 27.5t-17.5 19.5t-25.5 6t-19 -12q-18 -33 -46 -83t-60 -97.5t-67.5 -83t-72.5 -37.5 q-57 -4 -51 84q2 35 10 77t20 87q12 47 26.5 93t28 86t24.5 69.5t16 43.5q12 33 1.5 52.5t-28.5 25.5t-38.5 -3t-27.5 -34q-4 -18 -18 -22q-16 -4 -32.5 19.5t-53.5 39.5q-76 33 -162 -12q-61 -35 -113.5 -115t-80.5 -176q-27 -90 -28 -177zM99 448.5q7 71.5 30 145.5 q23 68 54.5 125t66.5 82q31 23 57.5 28t46.5 -4q31 -12 45 -49q16 -41 7 -103.5t-29 -129.5q-25 -84 -73 -152.5t-99 -91.5q-35 -14 -57.5 -2t-32.5 37q-23 43 -16 114.5zM286.5 1165q-3.5 35 26.5 72q29 33 65 34t56 -22q23 -27 16 -60t-30 -56q-29 -29 -57.5 -31t-49.5 12 q-23 16 -26.5 51zM477 1165q-4 35 27 72q29 33 64.5 34t56.5 -22q23 -27 15.5 -60t-30.5 -56q-29 -29 -57.5 -32t-46.5 13q-25 16 -29 51z" />
<glyph unicode="&#xe5;" horiz-adv-x="706" d="M3 423q-1 -87 36 -147q29 -41 70 -62t94 -9q31 8 59.5 24.5t52.5 36.5q25 20 37 21q18 0 43 -37q20 -33 51 -43t70 -4q53 8 98 47t82 91t67 107.5t52 96.5q8 14 3 27.5t-17.5 19.5t-25.5 5t-19 -13q-18 -33 -46 -83t-60 -97.5t-67.5 -83t-72.5 -37.5q-57 -4 -51 86 q2 35 10 75.5t20 87.5q12 45 26.5 92.5t28 87.5t25 69.5t15.5 43.5q12 33 1.5 52.5t-28.5 24.5t-38.5 -3t-26.5 -33q-5 -18 -19 -22q-16 -4 -32.5 19.5t-53.5 39.5q-35 14 -77 12t-85 -24q-61 -35 -113.5 -115t-80.5 -176q-27 -90 -28 -177zM103.5 443.5 q7.5 72.5 29.5 144.5q23 70 54.5 127t66.5 82q31 23 57.5 27.5t46.5 -3.5q33 -14 45 -51q16 -41 7 -103.5t-29 -127.5q-25 -84 -73 -153t-99 -91q-35 -16 -57.5 -4t-32.5 37q-23 43 -15.5 115.5zM377 1163.5q-6 48.5 41 102.5q41 47 92 48t80 -34q35 -41 24.5 -88t-45.5 -80 q-31 -31 -71.5 -41t-79.5 19q-35 25 -41 73.5zM426.5 1171.5q3.5 -26.5 22.5 -43.5q20 -16 45.5 -9t44.5 28q20 23 26 50.5t-14 47.5q-18 20 -49 19.5t-56 -33.5q-23 -33 -19.5 -59.5z" />
<glyph unicode="&#xe8;" horiz-adv-x="528" d="M1 437q1 85 30 173q20 59 52 115.5t72 99.5t88 70t99 27q90 2 129 -56.5t12 -140.5q-18 -57 -52 -100t-79 -74t-98 -49.5t-109 -28.5q-10 -2 -29.5 -17.5t-19.5 -37.5q2 -23 5 -39.5t14 -32.5q18 -37 51 -51t72 -10q57 4 108 35.5t93 77.5t76 97.5t58 94.5q8 12 21.5 13 t25 -5t16.5 -19.5t-3 -27.5q-31 -53 -70 -111.5t-87 -108.5t-106.5 -86t-127.5 -42q-59 -6 -115.5 16.5t-91.5 75.5q-35 57 -34 142zM135 580.5q6 -19.5 41 -15.5q74 18 140.5 58.5t89.5 119.5q10 35 -1.5 65t-56.5 26q-66 -8 -120 -68.5t-89 -140.5q-10 -25 -4 -44.5z M159 1375q3 22 17 34t35.5 9t42.5 -32l184 -245q14 -20 10 -39t-18 -29t-32.5 -8t-35.5 22l-190 246q-16 20 -13 42z" />
<glyph unicode="&#xe9;" horiz-adv-x="538" d="M1 437q-1 -85 34 -142q35 -53 91 -75.5t116 -16.5q70 6 128 42t106 86t87 108.5t70 111.5q8 14 3 27.5t-16.5 19.5t-24.5 5t-22 -13q-25 -43 -58.5 -94.5t-75.5 -97.5t-93 -77.5t-108 -35.5q-39 -4 -72 10t-51 51q-10 16 -13.5 32.5t-5.5 39.5q0 23 19.5 38t29.5 17 q55 10 108.5 28.5t98.5 49.5t79 74t52 100q27 82 -12 140.5t-129 56.5q-51 0 -99 -27t-88 -70t-72 -99t-52 -116q-29 -88 -30 -173zM135 580.5q-6 19.5 4 44.5q35 80 89.5 140t119.5 69q45 4 56.5 -26t1.5 -65q-23 -80 -89.5 -119.5t-140.5 -58.5q-35 -4 -41 15.5zM285 1106 q-4 19 10 39l184 248q20 29 42 31.5t36 -9.5t17.5 -33.5t-13.5 -42.5l-190 -245q-16 -23 -35 -25t-33 8t-18 29z" />
<glyph unicode="&#xea;" horiz-adv-x="538" d="M1 437q-1 -85 34 -142q35 -53 91 -75.5t116 -16.5q70 6 128 42t106 86t87 108.5t70 111.5q8 14 3 27.5t-16.5 19.5t-24.5 5t-22 -13q-25 -43 -58.5 -94.5t-75.5 -97.5t-93 -77.5t-108 -35.5q-39 -4 -72 10t-51 51q-10 16 -13.5 32.5t-5.5 39.5q0 23 19.5 38t29.5 17 q55 10 108.5 28.5t98.5 49.5t79 74t52 100q27 82 -12 140.5t-129 56.5q-51 0 -99 -27t-88 -70t-72 -99t-52 -116q-29 -88 -30 -173zM135 580.5q-6 19.5 4 44.5q35 80 89.5 140t119.5 69q45 4 56.5 -26t1.5 -65q-23 -80 -89.5 -119.5t-140.5 -58.5q-35 -4 -41 15.5zM145 1100 q-6 31 19 51l248 225q10 10 21 17.5t26 7.5q14 -2 23.5 -12.5t15.5 -22.5l123 -240q10 -27 -5 -47q-14 -20 -38 -20q-25 0 -37 22q-18 35 -33.5 62.5t-30.5 60.5q-18 39 -46.5 37t-59.5 -31l-152 -131q-16 -18 -41 -12q-27 8 -33 33z" />
<glyph unicode="&#xeb;" horiz-adv-x="538" d="M1 437q-1 -85 34 -142q35 -53 91 -75.5t116 -16.5q70 6 128 42t106 86t87 108.5t70 111.5q8 14 3 27.5t-16.5 19.5t-24.5 5t-22 -13q-25 -43 -58.5 -94.5t-75.5 -97.5t-93 -77.5t-108 -35.5q-39 -4 -72 10t-51 51q-10 16 -13.5 32.5t-5.5 39.5q0 23 19.5 38t29.5 17 q55 10 108.5 28.5t98.5 49.5t79 74t52 100q27 82 -12 140.5t-129 56.5q-51 0 -99 -27t-88 -70t-72 -99t-52 -116q-29 -88 -30 -173zM135 580.5q-6 19.5 4 44.5q35 80 89.5 140t119.5 69q45 4 56.5 -26t1.5 -65q-23 -80 -89.5 -119.5t-140.5 -58.5q-35 -4 -41 15.5zM211 1167 q-4 35 27 72q29 33 64.5 34t55.5 -22q23 -27 16 -60t-30 -56q-29 -29 -57.5 -31t-48.5 12q-23 16 -27 51zM401 1167q-4 35 27 72q29 33 64.5 34t56.5 -22q23 -27 16 -60t-30 -56q-29 -29 -57.5 -32t-47.5 13q-25 16 -29 51z" />
<glyph unicode="&#xec;" horiz-adv-x="346" d="M1 410.5q7 70.5 26 148.5q25 96 55.5 184t44.5 140q6 25 25.5 34t39 3.5t29.5 -24.5t-2 -52q-6 -14 -17.5 -46t-24.5 -73t-28.5 -89t-27.5 -93q-12 -47 -20.5 -88t-10.5 -76q-4 -90 53 -86q37 2 72 38t67.5 83t60.5 97t46 83q6 12 19.5 13t24.5 -5t16.5 -19.5t-3.5 -27.5 q-23 -41 -52 -96.5t-66 -107.5t-82.5 -91t-98.5 -47q-49 -10 -84.5 11.5t-52.5 68.5q-16 47 -9 117.5zM44 1379q3 22 17.5 34t36 9t41.5 -31l185 -246q14 -20 10 -39t-18.5 -29t-33 -8t-34.5 23l-191 245q-16 20 -13 42z" />
<glyph unicode="&#xed;" horiz-adv-x="342" d="M1.5 410.5q-7.5 -70.5 8.5 -117.5t52 -68.5t85 -11.5q53 8 98.5 47t82.5 91t66.5 107.5t51.5 96.5q8 14 3 27.5t-16 19.5t-24.5 5t-19.5 -13q-18 -33 -46 -83t-60.5 -97t-67.5 -83t-72 -38q-57 -4 -53 86q2 35 10.5 76t20.5 88q12 45 27.5 93t28.5 89t24.5 72.5 t17.5 46.5q12 33 2 52t-29.5 24.5t-39 -4t-25.5 -33.5q-14 -51 -45 -139.5t-55 -184.5q-18 -78 -25.5 -148.5zM201 1106q-4 19 10 39l184 248q20 29 42 31.5t36 -9.5t17.5 -33.5t-13.5 -42.5l-190 -245q-16 -23 -35 -25t-33 8t-18 29z" />
<glyph unicode="&#xee;" horiz-adv-x="342" d="M-37 1090q-6 31 19 51l247 225q10 10 21.5 17.5t25.5 7.5q14 -2 23.5 -12.5t15.5 -22.5l123 -240q10 -27 -4 -47t-39 -20t-37 22q-18 35 -33.5 62.5t-29.5 60.5q-18 39 -47 37t-60 -31l-151 -131q-16 -18 -41 -12q-27 8 -33 33zM1.5 410.5q-7.5 -70.5 8.5 -117.5 t52 -68.5t85 -11.5q53 8 98.5 47t82.5 91t66.5 107.5t51.5 96.5q8 14 3 27.5t-16 19.5t-24.5 5t-19.5 -13q-18 -33 -46 -83t-60.5 -97t-67.5 -83t-72 -38q-57 -4 -53 86q2 35 10.5 76t20.5 88q12 45 27.5 93t28.5 89t24.5 72.5t17.5 46.5q12 33 2 52t-29.5 24.5t-39 -4 t-25.5 -33.5q-14 -51 -45 -139.5t-55 -184.5q-18 -78 -25.5 -148.5z" />
<glyph unicode="&#xef;" horiz-adv-x="342" d="M1.5 410.5q-7.5 -70.5 8.5 -117.5t52 -68.5t85 -11.5q53 8 98.5 47t82.5 91t66.5 107.5t51.5 96.5q8 14 3 27.5t-16 19.5t-24.5 5t-19.5 -13q-18 -33 -46 -83t-60.5 -97t-67.5 -83t-72 -38q-57 -4 -53 86q2 35 10.5 76t20.5 88q12 45 27.5 93t28.5 89t24.5 72.5 t17.5 46.5q12 33 2 52t-29.5 24.5t-39 -4t-25.5 -33.5q-14 -51 -45 -139.5t-55 -184.5q-18 -78 -25.5 -148.5zM51 1163q-4 35 27 72q29 33 64.5 34t56.5 -22q23 -27 15.5 -60.5t-30.5 -56.5q-29 -29 -57.5 -30.5t-48.5 12.5q-23 16 -27 51zM241.5 1163q-3.5 35 26.5 72 q29 33 65 34t56 -22q23 -27 16 -60.5t-30 -56.5q-29 -29 -57.5 -31.5t-47.5 13.5q-25 16 -28.5 51z" />
<glyph unicode="&#xf0;" horiz-adv-x="747" d="M10.5 395.5q-28.5 100.5 18.5 239.5q20 61 52 117.5t73 99.5t88 69.5t100 26.5q41 0 79 -16.5t58 -54.5q35 -74 -12 -172q-10 -23 -27.5 -31t-33 -4t-23.5 19.5t4 37.5q12 23 20.5 49.5t-1.5 52.5q-8 20 -24.5 26.5t-35.5 4.5q-35 -4 -67.5 -25.5t-61.5 -55.5t-52.5 -77 t-39.5 -88q-41 -113 -23.5 -188.5t69.5 -108t127 -18.5t148 84q59 55 95.5 137t48.5 172t-1.5 180.5t-51.5 163.5q-6 16 -16.5 12t-18.5 -10q-10 -10 -19.5 -21t-19.5 -22q-8 -10 -21.5 -12t-23.5 6q-12 8 -14.5 24.5t8.5 26.5q12 16 24.5 28.5t24.5 29.5q14 16 11 29.5 t-11 23.5q-47 51 -99 92q-10 8 -14 22.5t2 26.5q6 10 19.5 18.5t25.5 4.5q10 -2 29 -17q25 -18 46.5 -40.5t43.5 -45.5q8 -10 21.5 -14t29.5 12q20 27 45 52q14 18 37 10q16 -6 21.5 -24.5t-6.5 -30.5q-25 -31 -54 -60q-16 -18 -16 -30.5t12 -34.5q47 -88 62.5 -198 t-1 -219.5t-63.5 -207.5t-123 -164q-98 -86 -198.5 -96t-171 39t-99 149.5z" />
<glyph unicode="&#xf1;" horiz-adv-x="665" d="M-55 270l176 611q8 20 23.5 29.5t30.5 9.5t28.5 -8.5t19.5 -20.5q2 -4 11.5 -11.5t27.5 3.5q68 49 152 45q25 -2 50 -12.5t44.5 -32t27 -56t-5.5 -84.5q-12 -47 -26.5 -90t-29.5 -86t-28.5 -89t-21.5 -99q-10 -53 7.5 -68.5t47.5 -3.5q33 12 69 55.5t70 96.5 q29 45 51.5 86t39.5 65q6 12 19 12.5t24.5 -6t16.5 -19.5t-3 -28q-23 -37 -49.5 -86t-61.5 -96q-37 -53 -77.5 -98t-88.5 -64q-33 -12 -64.5 -10t-56 19.5t-37 52.5t-5.5 88q8 57 21 105t27.5 92t30 87t29.5 93q8 31 -7 47t-36 20q-49 8 -94 -25.5t-82 -85t-62.5 -107.5 t-35.5 -95l-72 -252q-6 -25 -23.5 -33t-36 -4t-31.5 17.5t-9 35.5zM180 1130q14 41 44 67t65 34q68 16 131 -31q33 -25 59.5 -40t55.5 -1q23 10 47 49q8 14 22 15.5t25.5 -5t16.5 -19.5t-1 -28q-31 -68 -88 -90q-31 -12 -55.5 -10t-46 12.5t-41.5 25t-43 30.5q-35 23 -66 12 q-35 -10 -57 -53q-6 -16 -20.5 -19.5t-27 2.5t-19.5 19.5t-1 29.5z" />
<glyph unicode="&#xf2;" d="M0 415q-6 85 18.5 181t72.5 176t114.5 128t144.5 40q68 -8 106 -51t52 -105.5t6 -138.5t-35 -149q-8 -25 -2 -49.5t29 -24.5q35 0 67 16q37 20 60.5 57t46.5 76q8 10 13 20.5t12 20.5q6 12 19 13.5t24.5 -6t16.5 -19.5t-3 -27q-8 -18 -19 -34q-29 -55 -61.5 -100.5 t-85.5 -71.5q-74 -37 -137 -25q-27 4 -43.5 -5t-36.5 -28q-43 -51 -94.5 -80.5t-110.5 -25.5q-84 6 -126 66.5t-48 145.5zM95 446.5q-1 -63.5 19.5 -106.5t69.5 -43q35 0 67 19.5t58 52.5q10 14 6 24t-8 21q-16 29 -16 53q2 16 11 33.5t28 21.5q12 4 28 0q23 -2 28 6.5 t9 18.5q14 51 20.5 103t2.5 94t-21.5 70t-48.5 32q-49 8 -95 -30t-81 -98.5t-55.5 -134t-21.5 -137zM159 1375q3 22 17 34t35.5 9t42.5 -32l184 -245q14 -20 10 -39t-18 -29t-32.5 -8t-35.5 22l-190 246q-16 20 -13 42z" />
<glyph unicode="&#xf3;" d="M0 415q6 -85 48 -145.5t126 -66.5q59 -4 110.5 25.5t94.5 80.5q20 18 36.5 27.5t43.5 5.5q63 -12 137 25q53 27 86 71.5t61 100.5q10 16 19 34q8 14 3 26.5t-16.5 20t-24.5 6.5t-19 -14q-6 -10 -11.5 -20t-13.5 -21q-23 -39 -46.5 -75.5t-60.5 -57.5q-33 -16 -67 -16 q-23 0 -29 24.5t2 49.5q27 74 35 149.5t-6 138t-52 105.5t-106 51q-78 8 -144.5 -40t-114.5 -128t-72.5 -176t-18.5 -181zM95 446.5q1 63.5 21.5 137t55.5 134t81 98.5t95 30q31 -4 48.5 -32t21.5 -70t-2 -94t-21 -103q-4 -10 -9 -18.5t-28 -6.5q-16 4 -28 0 q-18 -4 -27.5 -21.5t-11.5 -33.5q0 -25 16 -53q4 -10 8 -20.5t-6 -24.5q-27 -33 -58.5 -52.5t-66.5 -19.5q-49 0 -69.5 43t-19.5 106.5zM285 1106q-4 19 10 39l184 248q20 29 42 31.5t36 -9.5t17.5 -33.5t-13.5 -42.5l-190 -245q-16 -23 -35 -25t-33 8t-18 29z" />
<glyph unicode="&#xf4;" d="M0 415q6 -85 48 -145.5t126 -66.5q59 -4 110.5 25.5t94.5 80.5q20 18 36.5 27.5t43.5 5.5q63 -12 137 25q53 27 86 71.5t61 100.5q10 16 19 34q8 14 3 26.5t-16.5 20t-24.5 6.5t-19 -14q-6 -10 -11.5 -20t-13.5 -21q-23 -39 -46.5 -75.5t-60.5 -57.5q-33 -16 -67 -16 q-23 0 -29 24.5t2 49.5q27 74 35 149.5t-6 138t-52 105.5t-106 51q-78 8 -144.5 -40t-114.5 -128t-72.5 -176t-18.5 -181zM95 446.5q1 63.5 21.5 137t55.5 134t81 98.5t95 30q31 -4 48.5 -32t21.5 -70t-2 -94t-21 -103q-4 -10 -9 -18.5t-28 -6.5q-16 4 -28 0 q-18 -4 -27.5 -21.5t-11.5 -33.5q0 -25 16 -53q4 -10 8 -20.5t-6 -24.5q-27 -33 -58.5 -52.5t-66.5 -19.5q-49 0 -69.5 43t-19.5 106.5zM127 1094q-6 31 18 51l248 225q10 10 21.5 17.5t25.5 7.5q14 -2 23.5 -12.5t15.5 -22.5l123 -240q10 -27 -4 -47t-39 -20t-37 22 q-18 35 -33.5 62.5t-29.5 60.5q-18 39 -47 37t-60 -31l-151 -131q-16 -18 -41 -12q-27 8 -33 33z" />
<glyph unicode="&#xf5;" d="M0 415q6 -85 48 -145.5t126 -66.5q59 -4 110.5 25.5t94.5 80.5q20 18 36.5 27.5t43.5 5.5q63 -12 137 25q53 27 86 71.5t61 100.5q10 16 19 34q8 14 3 26.5t-16.5 20t-24.5 6.5t-19 -14q-6 -10 -11.5 -20t-13.5 -21q-23 -39 -46.5 -75.5t-60.5 -57.5q-33 -16 -67 -16 q-23 0 -29 24.5t2 49.5q27 74 35 149.5t-6 138t-52 105.5t-106 51q-78 8 -144.5 -40t-114.5 -128t-72.5 -176t-18.5 -181zM95 446.5q1 63.5 21.5 137t55.5 134t81 98.5t95 30q31 -4 48.5 -32t21.5 -70t-2 -94t-21 -103q-4 -10 -9 -18.5t-28 -6.5q-16 4 -28 0 q-18 -4 -27.5 -21.5t-11.5 -33.5q0 -25 16 -53q4 -10 8 -20.5t-6 -24.5q-27 -33 -58.5 -52.5t-66.5 -19.5q-49 0 -69.5 43t-19.5 106.5zM188 1139q14 41 44 66.5t65 33.5q68 16 131 -31q33 -25 59.5 -40t55.5 -1q23 10 47 50q8 14 22.5 15t25.5 -5t16 -19.5t-1 -27.5 q-31 -68 -88 -90q-31 -12 -55.5 -10.5t-46 12t-41.5 25t-43 30.5q-35 23 -66 12q-35 -10 -57 -53q-6 -16 -20.5 -19.5t-26.5 3t-19.5 19.5t-1.5 30z" />
<glyph unicode="&#xf6;" d="M0 415q6 -85 48 -145.5t126 -66.5q59 -4 110.5 25.5t94.5 80.5q20 18 36.5 27.5t43.5 5.5q63 -12 137 25q53 27 86 71.5t61 100.5q10 16 19 34q8 14 3 26.5t-16.5 20t-24.5 6.5t-19 -14q-6 -10 -11.5 -20t-13.5 -21q-23 -39 -46.5 -75.5t-60.5 -57.5q-33 -16 -67 -16 q-23 0 -29 24.5t2 49.5q27 74 35 149.5t-6 138t-52 105.5t-106 51q-78 8 -144.5 -40t-114.5 -128t-72.5 -176t-18.5 -181zM95 446.5q1 63.5 21.5 137t55.5 134t81 98.5t95 30q31 -4 48.5 -32t21.5 -70t-2 -94t-21 -103q-4 -10 -9 -18.5t-28 -6.5q-16 4 -28 0 q-18 -4 -27.5 -21.5t-11.5 -33.5q0 -25 16 -53q4 -10 8 -20.5t-6 -24.5q-27 -33 -58.5 -52.5t-66.5 -19.5q-49 0 -69.5 43t-19.5 106.5zM231 1161q-4 35 27 72q29 33 64.5 34t56.5 -22q23 -27 16 -60.5t-30 -56.5q-29 -29 -57.5 -30.5t-49.5 12.5q-23 16 -27 51zM422 1161 q-4 35 27 72q29 33 64.5 34t55.5 -22q23 -27 16 -60.5t-30 -56.5q-29 -29 -57.5 -31.5t-46.5 13.5q-25 16 -29 51z" />
<glyph unicode="&#xf7;" horiz-adv-x="792" d="M80 653.5q0 16.5 11 30.5t34 14h211h289q23 0 35 -13t13 -29.5t-11.5 -30t-36.5 -15.5h-293h-203q-25 0 -37 13.5t-12 30zM276 475q4 25 22.5 41t43.5 12t41 -22.5t12 -42.5q-2 -27 -21.5 -42t-43.5 -13q-25 4 -41.5 23.5t-12.5 43.5zM373 842q2 25 21 41t44 12 t41.5 -22.5t12.5 -43.5t-22.5 -41t-43.5 -12t-41 22.5t-12 43.5z" />
<glyph unicode="&#xf9;" horiz-adv-x="598" d="M1 424q9 80 32.5 165t50.5 163.5t43 130.5q6 25 26.5 33t39 2.5t28.5 -25t-2 -51.5q-18 -53 -38.5 -112.5t-39 -121t-32 -122t-15.5 -115.5q-4 -45 8.5 -63.5t40.5 -16.5q18 0 39 16.5t41.5 41t35.5 53t26 53.5l143 424q8 27 25.5 35t34 3.5t26.5 -17.5t6 -30 q-12 -39 -37.5 -110.5t-50 -147t-44 -144.5t-19.5 -101q0 -23 5 -39.5t15 -24.5q20 -12 53 6q41 27 75 77t56 87q23 35 39.5 66.5t30.5 54.5q6 12 19.5 13t25.5 -6t17.5 -19.5t-3.5 -26.5q-16 -27 -32.5 -57.5t-36.5 -65.5q-29 -47 -60.5 -92t-68.5 -78q-16 -14 -33.5 -25.5 t-34.5 -19.5q-59 -23 -98 4q-10 8 -15.5 14.5t-13.5 18.5q-16 27 -38.5 14.5t-45.5 -26.5q-18 -12 -36.5 -20.5t-41.5 -12.5q-49 -8 -84.5 12.5t-52.5 67.5q-18 55 -9 135zM159 1375q3 22 17 34t35.5 9t42.5 -32l184 -245q14 -20 10 -39t-18 -29t-32.5 -8t-35.5 22l-190 246 q-16 20 -13 42z" />
<glyph unicode="&#xfa;" horiz-adv-x="598" d="M1 424q-9 -80 9 -135q16 -47 52 -67.5t85 -12.5q23 4 41.5 12t36.5 21q23 14 45.5 26.5t38.5 -14.5q8 -12 13.5 -18.5t15.5 -14.5q39 -27 98 -4q16 8 33.5 19.5t34.5 25.5q37 33 68.5 78t60.5 92q20 35 36.5 65.5t32.5 57.5q8 14 3 26.5t-17 19.5t-25.5 6t-19.5 -13 q-14 -23 -30.5 -54.5t-39.5 -66.5q-23 -37 -56.5 -87t-74.5 -77q-33 -18 -53 -6q-10 8 -15 24.5t-5 39.5q0 33 19.5 101.5t44 144t50 147t37.5 110.5q4 16 -6 29.5t-26.5 18t-34 -4t-25.5 -34.5l-143 -424q-10 -25 -25.5 -53.5t-36 -53t-41 -41t-39.5 -16.5q-29 -2 -41 16.5 t-8 63.5q2 55 15.5 115.5t32 122t39 120.5t38.5 113q12 33 2 52t-28.5 24.5t-39 -3t-26.5 -32.5q-16 -51 -43 -130t-50.5 -164t-32.5 -165zM305 1106q-4 19 10 39l185 248q20 29 41.5 31.5t36 -9.5t17.5 -33.5t-13 -42.5l-191 -245q-16 -23 -34.5 -25t-33 8t-18.5 29z" />
<glyph unicode="&#xfb;" horiz-adv-x="598" d="M1 424q-9 -80 9 -135q16 -47 52 -67.5t85 -12.5q23 4 41.5 12t36.5 21q23 14 45.5 26.5t38.5 -14.5q8 -12 13.5 -18.5t15.5 -14.5q39 -27 98 -4q16 8 33.5 19.5t34.5 25.5q37 33 68.5 78t60.5 92q20 35 36.5 65.5t32.5 57.5q8 14 3 26.5t-17 19.5t-25.5 6t-19.5 -13 q-14 -23 -30.5 -54.5t-39.5 -66.5q-23 -37 -56.5 -87t-74.5 -77q-33 -18 -53 -6q-10 8 -15 24.5t-5 39.5q0 33 19.5 101.5t44 144t50 147t37.5 110.5q4 16 -6 29.5t-26.5 18t-34 -4t-25.5 -34.5l-143 -424q-10 -25 -25.5 -53.5t-36 -53t-41 -41t-39.5 -16.5q-29 -2 -41 16.5 t-8 63.5q2 55 15.5 115.5t32 122t39 120.5t38.5 113q12 33 2 52t-28.5 24.5t-39 -3t-26.5 -32.5q-16 -51 -43 -130t-50.5 -164t-32.5 -165zM109 1106q-6 31 18 51l248 225q10 10 21.5 17.5t25.5 7.5q14 -2 23.5 -12.5t15.5 -22.5l123 -239q10 -27 -4 -48q-14 -20 -39 -20 t-37 22q-18 35 -33.5 63t-30.5 60q-18 39 -46.5 37.5t-59.5 -30.5l-152 -132q-16 -18 -41 -12q-27 8 -32 33z" />
<glyph unicode="&#xfc;" horiz-adv-x="598" d="M1 424q-9 -80 9 -135q16 -47 52 -67.5t85 -12.5q23 4 41.5 12t36.5 21q23 14 45.5 26.5t38.5 -14.5q8 -12 13.5 -18.5t15.5 -14.5q39 -27 98 -4q16 8 33.5 19.5t34.5 25.5q37 33 68.5 78t60.5 92q20 35 36.5 65.5t32.5 57.5q8 14 3 26.5t-17 19.5t-25.5 6t-19.5 -13 q-14 -23 -30.5 -54.5t-39.5 -66.5q-23 -37 -56.5 -87t-74.5 -77q-33 -18 -53 -6q-10 8 -15 24.5t-5 39.5q0 33 19.5 101.5t44 144t50 147t37.5 110.5q4 16 -6 29.5t-26.5 18t-34 -4t-25.5 -34.5l-143 -424q-10 -25 -25.5 -53.5t-36 -53t-41 -41t-39.5 -16.5q-29 -2 -41 16.5 t-8 63.5q2 55 15.5 115.5t32 122t39 120.5t38.5 113q12 33 2 52t-28.5 24.5t-39 -3t-26.5 -32.5q-16 -51 -43 -130t-50.5 -164t-32.5 -165zM211 1167q-4 35 27 72q29 33 64.5 34t55.5 -22q23 -27 16 -60t-30 -56q-29 -29 -57.5 -31t-48.5 12q-23 16 -27 51zM401 1167 q-4 35 27 72q29 33 64.5 34t56.5 -22q23 -27 16 -60t-30 -56q-29 -29 -57.5 -32t-47.5 13q-25 16 -29 51z" />
<glyph unicode="&#xfd;" horiz-adv-x="614" d="M-143.5 -179q6.5 48 41.5 91q53 66 127.5 114t140.5 80q27 12 40 26.5t23 39.5l21 70q-16 -10 -40 -22.5t-58 -16.5q-49 -8 -86 12.5t-54 65.5q-18 55 -9 135t32.5 166t51.5 164.5t44 130.5q6 25 25.5 33t38 2.5t30 -25t-1.5 -51.5q-18 -53 -39.5 -112.5t-40 -121 t-32 -122t-15.5 -115.5q-2 -84 49 -82q33 2 63 27.5t54.5 61.5t42 74.5t25.5 67.5l108 363q6 25 25.5 34t39 3.5t30 -25t-2.5 -51.5q-53 -152 -90 -291t-82 -287q-14 -51 29 -29q43 25 83 71t77 101.5t67.5 110.5t55.5 96q6 12 19 13.5t25.5 -5t17.5 -19.5t-3 -28 q-51 -100 -92 -168.5t-78 -117.5t-75 -82t-85 -62.5t-107.5 -60.5t-141.5 -74q-41 -23 -91.5 -59.5t-87.5 -77.5q-23 -23 -28.5 -47.5t0.5 -45t21.5 -32.5t37.5 -12q33 0 62.5 25.5t54 62.5t44 80t32.5 80q8 20 26.5 31.5t35.5 12.5t28.5 -7.5t5.5 -24.5q-18 -53 -42 -111.5 t-56.5 -107.5t-77.5 -83t-107 -38q-49 -4 -86 19.5t-54.5 62.5t-11 87zM235 1377q3 22 17 34t35.5 9t42.5 -31l184 -246q14 -20 10 -39t-18 -29t-32.5 -8t-35.5 23l-190 245q-16 20 -13 42z" />
<glyph unicode="&#xff;" horiz-adv-x="614" d="M-143.5 -179q-6.5 -48 11 -87t54.5 -62.5t86 -19.5q61 4 106.5 38t78 83t56 107.5t42.5 111.5q6 16 -5.5 24.5t-28.5 7.5t-35.5 -12.5t-26.5 -31.5q-12 -37 -32 -80t-44.5 -80t-54 -62.5t-62.5 -25.5q-23 0 -38 12t-21 32.5t0 45t28 47.5q37 41 87.5 78t91.5 59 q82 43 142 74t107 60.5t85 62.5t75 82t78 117.5t92 168.5q8 14 3 27.5t-17.5 20t-25.5 5.5t-19 -14q-25 -41 -55.5 -96t-67.5 -110.5t-77 -101.5t-83 -71q-43 -23 -29 29q45 147 82 286.5t90 291.5q12 33 2 52t-29.5 24.5t-39 -4t-25.5 -33.5l-108 -363q-8 -29 -25.5 -67.5 t-42 -74.5t-54.5 -61.5t-63 -27.5q-51 -2 -49 82q2 55 15.5 115.5t32 122t40 120.5t39.5 113q12 33 1 52t-29.5 24.5t-38 -3t-25.5 -32.5q-16 -51 -44 -130t-51.5 -165t-32.5 -166t9 -135q16 -45 53 -65.5t87 -12.5q35 4 58 16t40 23l-21 -70q-10 -25 -23 -39t-40 -27 q-66 -33 -140.5 -81t-127.5 -113q-35 -43 -41.5 -91zM227 1167q-4 35 27 72q29 33 64.5 34t56.5 -22q23 -27 15.5 -60t-30.5 -56q-29 -29 -57.5 -31t-48.5 12q-23 16 -27 51zM417.5 1167q-3.5 35 26.5 72q29 33 65 34t56 -22q23 -27 16 -60t-30 -56q-29 -29 -57.5 -32 t-47.5 13q-25 16 -28.5 51z" />
<glyph unicode="&#x178;" horiz-adv-x="1454" d="M6 1223q-6 -61 9.5 -131t50.5 -121q31 -47 79 -80q16 -10 36 -10t34 16q12 14 12 34.5t-16 33.5q-16 10 -27.5 22t-23.5 27q-35 47 -46.5 104.5t-0.5 116.5q12 59 38.5 105t63.5 79t81 49.5t87 16.5q80 0 146.5 -58.5t82.5 -183.5q12 -86 -10 -179t-53 -185.5 t-55.5 -180.5t-18.5 -166q8 -117 79 -173t181 -40q63 10 124 37t110 62q16 10 26.5 2t5.5 -19q-10 -29 -18 -56.5t-18 -55.5q-6 -18 -33 -44t-84 -34q-59 -6 -120.5 -26.5t-116 -52.5t-95.5 -77t-59 -100q-16 -49 -13.5 -98.5t26.5 -85t67 -55t104 -11.5q59 6 110.5 40 t93.5 82t75.5 105.5t56.5 112.5q6 18 -6.5 31.5t-30.5 17.5t-37.5 -4t-28.5 -35q-18 -45 -44.5 -89t-60.5 -80t-74 -60.5t-85 -28.5q-25 -4 -41 6.5t-23 27.5t-8 40t5 43q12 43 47 80t81 64.5t98 45t99 19.5q104 6 197.5 -41t159.5 -127q14 -14 30.5 -15t28.5 8t16.5 26.5 t-8.5 39.5q-16 37 -64 77t-100 69q-35 18 -54 44.5t-3 69.5q45 137 92 292t94 290q18 51 43 99.5t35 101.5q8 37 -9 64.5t-46 31.5t-59.5 -18.5t-46.5 -83.5q-14 -47 -22.5 -96.5t-18.5 -96.5q-20 -94 -59.5 -170t-91.5 -132t-113.5 -90t-127.5 -46q-74 -12 -113.5 19.5 t-37.5 109.5q2 90 29.5 179t56.5 179t46 183.5t-3 189.5q-16 82 -50 140.5t-78 95t-96.5 53t-105.5 16.5q-68 0 -133.5 -26.5t-118.5 -74.5t-89 -114.5t-42 -146.5zM934 1722q-4 37 31 78q31 35 68.5 36t60.5 -24q25 -29 15.5 -65t-32.5 -59q-31 -31 -60.5 -34t-51.5 13 q-27 18 -31 55zM1138.5 1722q-3.5 37 30.5 76q29 35 68 37t61 -25q23 -29 15 -64t-31 -60q-31 -29 -60.5 -32t-52.5 13q-27 18 -30.5 55z" />
<glyph unicode="&#x2c6;" horiz-adv-x="745" d="M127 1094q-6 31 18 51l248 225q10 10 21.5 17.5t25.5 7.5q14 -2 23.5 -12.5t15.5 -22.5l123 -240q10 -27 -4 -47t-39 -20t-37 22q-18 35 -33.5 62.5t-29.5 60.5q-18 39 -47 37t-60 -31l-151 -131q-16 -18 -41 -12q-27 8 -33 33z" />
<glyph unicode="&#x2dc;" horiz-adv-x="808" d="M123 1081q18 45 54 71t79 36q55 10 97 -5.5t77 -36t64.5 -34.5t62.5 0q27 12 57 51q12 18 28.5 19.5t31 -6t20.5 -22.5t-2 -30q-37 -70 -106 -92q-57 -20 -99.5 -8t-76 32.5t-65.5 38t-69 9.5q-23 -4 -39 -19.5t-30 -37.5q-10 -16 -27.5 -19.5t-32 2.5t-22.5 19.5 t-2 31.5z" />
<glyph unicode="&#x2000;" horiz-adv-x="1105" />
<glyph unicode="&#x2001;" horiz-adv-x="2211" />
<glyph unicode="&#x2002;" horiz-adv-x="1105" />
<glyph unicode="&#x2003;" horiz-adv-x="2211" />
<glyph unicode="&#x2004;" horiz-adv-x="737" />
<glyph unicode="&#x2005;" horiz-adv-x="552" />
<glyph unicode="&#x2006;" horiz-adv-x="368" />
<glyph unicode="&#x2007;" horiz-adv-x="368" />
<glyph unicode="&#x2008;" horiz-adv-x="276" />
<glyph unicode="&#x2009;" horiz-adv-x="442" />
<glyph unicode="&#x200a;" horiz-adv-x="122" />
<glyph unicode="&#x2010;" horiz-adv-x="770" d="M59 653.5q0 16.5 11.5 30.5t33.5 14h299h59.5t42 1t42 1h59.5q23 0 36 -13t13 -29.5t-11 -30t-38 -15.5l-209 -2h-288q-25 0 -37.5 13.5t-12.5 30z" />
<glyph unicode="&#x2011;" horiz-adv-x="770" d="M59 653.5q0 16.5 11.5 30.5t33.5 14h299h59.5t42 1t42 1h59.5q23 0 36 -13t13 -29.5t-11 -30t-38 -15.5l-209 -2h-288q-25 0 -37.5 13.5t-12.5 30z" />
<glyph unicode="&#x2012;" horiz-adv-x="770" d="M59 653.5q0 16.5 11.5 30.5t33.5 14h299h59.5t42 1t42 1h59.5q23 0 36 -13t13 -29.5t-11 -30t-38 -15.5l-209 -2h-288q-25 0 -37.5 13.5t-12.5 30z" />
<glyph unicode="&#x2013;" horiz-adv-x="925" d="M59 653.5q0 16.5 11.5 30.5t33.5 14h99.5t130 1t130 1h99.5h59.5t42 1t42 1h59.5q23 0 36 -13t13 -29.5t-11 -30t-38 -15.5l-209 -2l-448 -2q-25 0 -37.5 13.5t-12.5 30z" />
<glyph unicode="&#x2014;" horiz-adv-x="1021" d="M59 653.5q0 16.5 11.5 30.5t33.5 14q37 0 114 1t162 2t163 2.5t114 1.5h59.5t42 1t42 1h59.5q23 0 36 -13.5t13 -30t-11 -29.5t-38 -16l-209 -2l-542 -6q-25 0 -37.5 13.5t-12.5 30z" />
<glyph unicode="&#x2018;" horiz-adv-x="530" d="M274 930q-2 27 10.5 46t31 34.5t41 26t44.5 16.5q10 0 5 -6q-31 -25 -37 -43q-4 -12 0 -19.5t8 -11.5q18 -23 16 -45q-2 -25 -21 -41.5t-44 -12.5q-23 2 -37.5 17.5t-16.5 38.5z" />
<glyph unicode="&#x2019;" horiz-adv-x="460" d="M206 850q-1 2 1 4q31 25 39 43q4 12 -1 19.5l-9 13.5q-18 23 -17 45q4 25 22.5 40t43.5 13q23 -4 38 -19.5t17 -37.5q0 -25 -11.5 -45.5t-29.5 -34.5t-42 -24.5t-46 -16.5q-4 -2 -5 0z" />
<glyph unicode="&#x201a;" horiz-adv-x="360" d="M160 158q31 25 39 43q4 12 -1 19t-10 11q-18 23 -16 45q4 25 22.5 41.5t43.5 12.5q23 -2 38 -17.5t15 -38.5q2 -27 -10.5 -46t-31 -34.5t-42 -25.5t-43.5 -16q-10 0 -4 6z" />
<glyph unicode="&#x201c;" horiz-adv-x="681" d="M274 930q-2 27 10.5 46t31 34.5t41 26t44.5 16.5q10 0 5 -6q-31 -25 -37 -43q-4 -12 0 -19.5t8 -11.5q18 -23 16 -45q-2 -25 -21 -41.5t-44 -12.5q-23 2 -37.5 17.5t-16.5 38.5zM424 930q-2 27 10 46t30.5 34.5t42 26t46.5 16.5q4 0 5 -2t-3 -4q-31 -25 -37 -43 q-4 -10 0 -18.5t8 -12.5q20 -20 19 -45q-4 -25 -22.5 -41.5t-45.5 -12.5q-23 2 -37 17.5t-16 38.5z" />
<glyph unicode="&#x201d;" horiz-adv-x="612" d="M206 850q-1 2 1 4q31 25 39 43q4 12 -1 19.5l-9 13.5q-18 23 -17 45q4 25 22.5 40t43.5 13q23 -4 38 -19.5t17 -37.5q0 -25 -11.5 -45.5t-29.5 -34.5t-42 -24.5t-46 -16.5q-4 -2 -5 0zM356 850q-2 2 2 4q31 25 37 43q4 12 0 19.5t-8 13.5q-18 23 -16 45q2 25 21 40t44 13 q23 -4 37 -19.5t16 -37.5q2 -25 -10 -45.5t-30.5 -34.5t-42 -24.5t-44.5 -16.5q-4 -2 -6 0z" />
<glyph unicode="&#x201e;" horiz-adv-x="524" d="M160 158q31 25 39 43q4 12 -1 19t-10 11q-18 23 -16 45q4 25 22.5 41.5t43.5 12.5q23 -2 38 -17.5t15 -38.5q2 -27 -10.5 -46t-31 -34.5t-42 -25.5t-43.5 -16q-10 0 -4 6zM315 156q31 25 39 43q4 12 -1 19t-9 11q-18 23 -16 45q4 25 22 41.5t43 12.5q23 -2 38 -17.5 t15 -38.5q2 -27 -10 -46t-30.5 -34.5t-42 -25.5t-44.5 -16q-10 0 -4 6z" />
<glyph unicode="&#x2022;" horiz-adv-x="460" d="M102 623q6 37 34 64.5t65 35.5q49 10 80 -21q29 -29 23.5 -68.5t-28.5 -70.5q-20 -29 -53.5 -44t-68.5 -1q-35 12 -46.5 42t-5.5 63z" />
<glyph unicode="&#x2026;" horiz-adv-x="733" d="M156 270q2 25 21 41.5t44 12.5q25 -2 41.5 -21.5t11.5 -44.5q-4 -25 -22.5 -41t-42.5 -12q-25 4 -41 22.5t-12 42.5zM342 268q2 25 21.5 41.5t44.5 12.5q25 -2 41 -21.5t12 -44.5t-22.5 -41t-43.5 -12t-41 22.5t-12 42.5zM524 272q2 25 21.5 41.5t44.5 12.5 q25 -2 41 -21.5t12 -44.5t-22.5 -41t-42.5 -12q-25 4 -41.5 22.5t-12.5 42.5z" />
<glyph unicode="&#x202f;" horiz-adv-x="442" />
<glyph unicode="&#x2039;" horiz-adv-x="587" d="M148.5 624.5q-1.5 24.5 23.5 49.5l223 207q23 12 45 0q18 -10 23 -33q0 -25 -19 -37l-143 -135q-29 -27 -27 -45t31 -45l141 -117q18 -14 15 -37q-2 -12 -9.5 -22.5t-17.5 -14.5q-25 -10 -49 11l-217 178q-18 16 -19.5 40.5z" />
<glyph unicode="&#x203a;" horiz-adv-x="585" d="M145 846q4 23 23 33q23 12 45 0l223 -207q25 -25 24 -49.5t-20 -40.5l-217 -179q-25 -20 -49 -10q-10 4 -17 14.5t-10 22.5q-6 18 13 37l143 117q29 27 30 45t-28 45l-141 135q-18 12 -19 37z" />
<glyph unicode="&#x205f;" horiz-adv-x="552" />
<glyph unicode="&#x20ac;" horiz-adv-x="1480" d="M124 743.5q-1 18.5 9 35t33 16.5l192 4q43 0 54 39q2 4 2 10t4 14q8 35 -6.5 40t-46.5 7l-142 6q-23 -4 -37 9.5t-17 32t7 36t35 23.5l203 -2q29 0 52 19.5t40 49.5q37 76 86 149t109.5 136.5t130 112.5t147.5 78q37 14 78 21t81 3t75.5 -20.5t64.5 -46.5q31 -37 43 -81 t12 -91.5t-9.5 -94.5t-23.5 -88q-6 -23 -25.5 -33t-39.5 -2q-23 6 -33 25.5t0 40.5q8 27 16.5 58.5t12.5 63.5t0 63.5t-21 56.5q-16 25 -37.5 35t-45 12t-48 -2t-49.5 -11q-66 -23 -124 -63.5t-109.5 -92.5t-94.5 -111.5t-75 -121.5q-4 -8 -7.5 -19t-2.5 -20.5t10.5 -15.5 t29.5 -6l181 -6q23 -2 37 -16.5t12 -37.5q0 -20 -14.5 -33.5t-36.5 -13.5l-226 7q-18 -2 -38.5 -12.5t-30.5 -33.5q-2 -4 -3 -10t-3 -10q-12 -33 3 -35t31 -4l174 -6q27 -2 37.5 -18.5t7 -36t-18.5 -33.5t-42 -10l-176 4q-23 -2 -37 -14.5t-16 -36.5q-4 -53 -2 -108.5 t17 -103t47 -83t91 -50.5q43 -12 86 -8t85 18.5t81 37t72 47.5q59 43 94 84t78 96q14 20 35.5 21t37 -10t19.5 -31.5t-14 -45.5q-82 -121 -205 -209q-82 -59 -186.5 -94t-206.5 -12q-74 18 -123 62t-78 104.5t-39 130.5t-6 139q2 39 -8.5 43t-46.5 4l-156 2q-23 -2 -34 13.5 t-12 34z" />
<glyph unicode="&#x2122;" horiz-adv-x="905" d="M170 1249.5q0 12.5 8 23.5t25 11h186q16 0 25.5 -11t9.5 -23.5t-8 -24t-25 -11.5h-39q-25 0 -24 -26v-111v-217q0 -16 -10.5 -24.5t-21.5 -8.5t-21.5 9.5t-10.5 25.5v211v115q0 16 -9 21t-22 5h-30q-16 0 -24.5 11.5t-8.5 24zM471 862v215v176q0 14 7 22.5t17.5 10.5 t20.5 -3t16 -19l66 -160q10 -23 19.5 -24t19.5 26l63 156q12 29 35 24.5t27 -26.5q0 -2 1 -3.5t1 -3.5v-176v-215q0 -16 -10.5 -24.5t-21.5 -8.5t-21.5 8.5t-10.5 24.5v182q2 16 -6 15.5t-12 -8.5q-10 -23 -17.5 -40.5t-17.5 -39.5q-10 -23 -30.5 -24t-30.5 22l-33 82 q-6 12 -13.5 7t-4.5 -11v-185q0 -16 -10.5 -24.5t-21.5 -8.5t-21.5 8.5t-10.5 24.5z" />
<glyph unicode="&#x25fc;" horiz-adv-x="921" d="M0 0v922h922v-922h-922z" />
</font>
</defs>
</svg>
